<?xml version="1.0" standalone="no"?>
<!DOCTYPE svg PUBLIC "-//W3C//DTD SVG 1.1//EN" "http://www.w3.org/Graphics/SVG/1.1/DTD/svg11.dtd" >
<svg xmlns="http://www.w3.org/2000/svg" xmlns:xlink="http://www.w3.org/1999/xlink" version="1.1">
<metadata>
Created by FontForge 20201107 at Tue Oct 21 15:40:24 2025
 By 
(c) 1992, 1994, 1997, 2000, 2004 Adobe Systems Incorporated. All rights reserved.
</metadata>
<defs>
<font id="latenight-Bold" horiz-adv-x="614" >
  <font-face 
    font-family="latenight"
    font-weight="700"
    font-stretch="normal"
    units-per-em="2048"
    panose-1="0 0 0 0 0 0 0 0 0 0"
    ascent="1536"
    descent="-512"
    x-height="961"
    cap-height="1380"
    bbox="-371 -575 2650 2025"
    underline-thickness="102"
    underline-position="-204"
    unicode-range="U+000D-FB04"
  />
<missing-glyph horiz-adv-x="1024" 
d="M0 0v1434h1024v-1434h-1024zM164 1331l348 -522l348 522h-696zM922 1239l-349 -522l349 -522v1044zM164 102h696l-348 523zM451 717l-349 522v-1044z" />
    <glyph glyph-name="uniE003" unicode="ffj" horiz-adv-x="1814" 
d="M53 961h172v307q3 113 82 190.5t193 77.5h157q114 0 195.5 -80t81.5 -194v-86h-170v67q0 53 -36 89t-89 36h-119q-50 0 -86 -34t-39 -83v-247l-98 -31v-12h709v307q3 113 81.5 190.5t192.5 77.5h158q114 0 194 -80t80 -194v-86h-168v67q0 53 -36 89t-89 36h-119
q-51 0 -86 -33.5t-38 -83.5v-247l-99 -31v-12h635v-1258q0 -115 -81 -196.5t-195 -81.5h-256q-114 0 -195.5 81.5t-81.5 196.5v27h170v-9q0 -53 37.5 -90t89.5 -37h215q53 0 90 37t37 90v1070h-366v-791h-170v791h-611v-791h-170v791h-172v170z" />
    <glyph glyph-name="uniE004" unicode="fj" horiz-adv-x="987" 
d="M225 791h-172v170h172v307q3 113 82 190.5t193 77.5h157q114 0 195.5 -80t81.5 -194v-86h-170v67q0 53 -36 89t-89 36h-119q-50 0 -86 -34t-39 -83v-247l-98 -31v-12h635v-1258q0 -116 -81 -197t-196 -81h-254q-115 0 -196.5 81.5t-81.5 196.5v27h170v-9q0 -53 37.5 -90
t89.5 -37h217q52 0 88.5 37t36.5 90v1070h-367v-791h-170v791z" />
    <glyph glyph-name="f_f" unicode="ff" horiz-adv-x="1765" 
d="M53 961h172v307q3 113 82 190.5t193 77.5h157q114 0 195.5 -80t81.5 -194v-86h-170v67q0 53 -36 89t-89 36h-119q-50 0 -86 -34t-39 -83v-247l-98 -31v-12h709v307q3 113 81.5 190.5t192.5 77.5h158q114 0 194 -80t80 -194v-86h-168v67q0 53 -36 89t-89 36h-119
q-51 0 -86 -33.5t-38 -83.5v-247l-99 -31v-12h635v-170h-536v-791h-170v791h-611v-791h-170v791h-172v170z" />
    <glyph glyph-name="f_f_i" unicode="ffi" horiz-adv-x="1882" 
d="M225 791h-172v170h172v307q3 113 82 190.5t193 77.5h157q114 0 195.5 -80t81.5 -194v-86h-170v67q0 53 -36 89t-89 36h-119q-50 0 -86 -34t-39 -83v-247l-98 -31v-12h709v307q3 113 81.5 190.5t192.5 77.5h158q114 0 194 -80t80 -194v-86h-168v67q0 53 -36 89t-89 36
h-119q-51 0 -86 -33.5t-38 -83.5v-247l-99 -31v-12h635v-725q0 -42 15 -55t53 -13h49v-168h-123h-8q-66 4 -111 53t-45 115v623h-366v-791h-170v791h-611v-791h-170v791z" />
    <glyph glyph-name="f_f_l" unicode="ffl" horiz-adv-x="1841" 
d="M53 961h172v307q3 113 82 190.5t193 77.5h157q114 0 195.5 -80t81.5 -194v-86h-170v67q0 53 -36 89t-89 36h-119q-50 0 -86 -34t-39 -83v-247l-98 -31v-12h709v307q3 113 81.5 190.5t192.5 77.5h158q114 0 194 -80t80 -194v-86h-168v67q0 53 -36 89t-89 36h-119
q-51 0 -86 -33.5t-38 -83.5v-247l-99 -31v-12h635v-170h-536v-791h-170v791h-611v-791h-170v791h-172v170z" />
    <glyph glyph-name="f_i" unicode="fi" horiz-adv-x="1101" 
d="M225 791h-172v170h172v307q3 113 82 190.5t193 77.5h157q114 0 195.5 -80t81.5 -194v-86h-170v67q0 53 -36 89t-89 36h-119q-50 0 -86 -34t-39 -83v-247l-98 -31v-12h637l-2 -725q0 -42 14.5 -55t52.5 -13h50v-168h-123h-8q-66 4 -111 53t-45 115v623h-367v-791h-170v791
z" />
    <glyph glyph-name="f_l" unicode="fl" horiz-adv-x="1101" 
d="M225 791h-172v170h172v307q3 113 82 190.5t193 77.5h157q114 0 195.5 -80t81.5 -194v-1026q0 -43 14.5 -56.5t52.5 -13.5l48 2v-168h-121h-10q-66 4 -110 53t-44 115v623h-369v-791h-170v791zM395 1004l-98 -31v-12h467v282q0 53 -36 89t-89 36h-119q-50 0 -86 -34
t-39 -83v-247z" />
    <glyph glyph-name=".notdef" horiz-adv-x="1024" 
d="M0 0v1434h1024v-1434h-1024zM164 1331l348 -522l348 522h-696zM922 1239l-349 -522l349 -522v1044zM164 102h696l-348 523zM451 717l-349 522v-1044z" />
    <glyph glyph-name="uni0000" horiz-adv-x="0" 
 />
    <glyph glyph-name="uni0000" horiz-adv-x="0" 
 />
    <glyph glyph-name="uni000D" unicode="&#xd;" horiz-adv-x="512" 
 />
    <glyph glyph-name="space" unicode=" " horiz-adv-x="413" 
 />
    <glyph glyph-name="exclam" unicode="!" horiz-adv-x="296" 
d="M233 242h-170v1421h170v-1421zM238 129q-12 36 -48 52.5t-73 4.5q-37 -14 -54 -50t-4 -73q12 -36 48 -52.5t73 -4.5q37 14 54 49.5t4 73.5z" />
    <glyph glyph-name="quotedbl" unicode="&#x22;" horiz-adv-x="440" 
d="M250 1380h137l-20 -358h-97zM74 1022l-21 358h137l-20 -358h-96z" />
    <glyph glyph-name="numbersign" unicode="#" horiz-adv-x="1253" 
d="M1120 522h-225l-45 -94h227l-80 -168h-227l-123 -260h-186l121 260h-111l-123 -260h-188l123 260h-230l80 168h229l46 94h-232l82 170h229l134 275h188l-135 -275h112l136 275h186l-133 -275h225zM664 428l43 94h-113l-43 -94h113z" />
    <glyph glyph-name="dollar" unicode="$" horiz-adv-x="1169" 
d="M299 139q-101 2 -173.5 74.5t-72.5 173.5v51h170q0 -129 125 -129h473q51 0 87 36t38 87v281q0 51 -37 88t-88 37h-520q-101 0 -173.5 72t-74.5 173v347q0 101 72.5 173t173.5 72h190v140h170v-140h209q101 0 173.5 -72t74.5 -173v-56h-172q0 131 -123 131h-473
q-52 0 -88.5 -36.5t-36.5 -88.5v-247q0 -53 36.5 -89t88.5 -36h520q101 0 173.5 -72.5t72.5 -173.5v-377q0 -101 -72.5 -173.5t-173.5 -72.5h-206v-139h-170v139h-193zM662 139h-170h170z" />
    <glyph glyph-name="percent" unicode="%" horiz-adv-x="1064" 
d="M360 877h-206q-36 0 -68.5 32t-32.5 68v256q0 35 33 67.5t68 32.5h206q36 0 68.5 -32.5t32.5 -67.5v-256q0 -37 -32 -68.5t-69 -31.5zM162 1188v-166q0 -22 7.5 -29.5t29.5 -7.5h116q22 0 29.5 7.5t7.5 29.5v166q0 21 -8 29t-29 8h-116q-21 0 -29 -8t-8 -29zM909 492
q37 0 70 -33t33 -70v-254q0 -37 -33 -68.5t-70 -31.5h-204q-37 0 -70 31.5t-33 68.5v254q0 37 33 70t70 33h204zM903 180v166q0 20 -8.5 28.5t-28.5 8.5h-118q-20 0 -28.5 -8.5t-8.5 -28.5v-166q0 -21 8 -29t29 -8h118q21 0 29 8t8 29zM762 1366h186l-645 -1366h-188z" />
    <glyph glyph-name="ampersand" unicode="&#x26;" horiz-adv-x="1327" 
d="M1028 723v-428v-20.5v-20t0.5 -17t2 -17t4 -14t6.5 -13t10 -9.5t14 -8t18 -4t23 -2h37v-170h-37q-139 0 -201 72q-42 52 -45 147l58 252h-13l-45 -78q-12 -17 -54 -81.5t-68.5 -103t-67.5 -84t-74 -65.5l-18 -12q-68 -36 -142 -45q-111 -8 -176 8q-91 23 -149 97.5
t-58 168.5v340q0 69 32 129t87 97q-49 71 -49 155v293q0 101 72.5 173.5t173.5 72.5h243h4h70q114 0 195.5 -80t81.5 -194v-31h-170v12q0 49 -33.5 84.5t-81.5 40.5h-262q-51 0 -88 -37t-37 -88v-227q0 -49 33.5 -84.5t81.5 -40.5h868v-168h-246zM860 479l-2 244h-512
q-51 0 -88 -36.5t-37 -88.5v-303q0 -52 37 -88.5t88 -36.5q77 0 167 40.5t161.5 97t119 101.5t66.5 70z" />
    <glyph glyph-name="quotesingle" unicode="'" horiz-adv-x="243" 
d="M190 1380l-20 -358h-96l-21 358h137z" />
    <glyph glyph-name="parenleft" unicode="(" horiz-adv-x="501" 
d="M221 1411v-1286q0 -54 31 -89.5t82 -35.5h115v-170l-152 2q-100 0 -172 72.5t-72 173.5v1382q0 100 72 172t172 74h152v-170h-115q-51 0 -82 -35.5t-31 -89.5z" />
    <glyph glyph-name="parenright" unicode=")" horiz-adv-x="501" 
d="M279 125v1286q0 54 -30.5 89.5t-80.5 35.5h-115v170h150q101 -2 173.5 -74t72.5 -172v-1382q0 -101 -72.5 -173.5t-173.5 -74.5h-150v170h115q50 0 80.5 35.5t30.5 89.5z" />
    <glyph glyph-name="asterisk" unicode="*" horiz-adv-x="825" 
d="M772 1268v-154l-248 14l140 -204l-132 -80l-120 225l-119 -225l-133 80l141 204l-248 -14v154l248 -15l-141 205l133 80l119 -227l120 227l132 -80l-140 -205zM412 1190v0v0z" />
    <glyph glyph-name="plus" unicode="+" horiz-adv-x="1069" 
d="M618 711h398v-168h-398v-398h-167v398h-398v168h398v395h167v-395z" />
    <glyph glyph-name="comma" unicode="," horiz-adv-x="243" 
d="M190 162l-20 -359h-96l-21 359h137z" />
    <glyph glyph-name="hyphen" unicode="-" horiz-adv-x="643" 
d="M53 641h537v-170h-537v170z" />
    <glyph glyph-name="period" unicode="." horiz-adv-x="296" 
d="M59 63q-13 37 4 73t54 50q18 7 33 7q30 0 54.5 -17.5t33.5 -46.5q12 -37 -5 -73.5t-53 -49.5q-15 -6 -33 -6q-30 0 -54 17t-34 46z" />
    <glyph glyph-name="slash" unicode="/" horiz-adv-x="1021" 
d="M780 1536h189l-727 -1536h-189z" />
    <glyph glyph-name="zero" unicode="0" horiz-adv-x="1169" 
d="M868 1536q101 0 173.5 -72.5t74.5 -173.5l-2 -1044q0 -101 -72.5 -173.5t-173.5 -72.5h-569q-101 0 -173.5 73.5t-72.5 174.5v1040q0 101 72.5 174.5t173.5 73.5h569zM946 266v1004q0 40 -28 68t-68 28h-531q-40 0 -68 -28t-28 -68v-1004q0 -40 28 -68t68 -28h531
q40 0 68 28t28 68z" />
    <glyph glyph-name="one" unicode="1" horiz-adv-x="960" 
d="M584 1536h323v-1536h-170v1495l-497 -647h-187z" />
    <glyph glyph-name="two" unicode="2" horiz-adv-x="1169" 
d="M221 211l-96 -31v-12h696q53 0 89 31t36 82v20h168v-57q0 -100 -72.5 -172t-173.5 -72h-815v743q0 100 72.5 172t173.5 72h522q53 0 89 36.5t36 88.5v143q0 50 -36 80.5t-89 30.5h-473q-53 0 -89 -29t-36 -80v-22h-168v53q0 101 72 173.5t172 72.5h569q101 0 173.5 -71.5
t72.5 -172.5l2 -227q-1 -101 -74 -172.5t-174 -71.5h-522q-53 0 -89 -30.5t-36 -81.5v-496z" />
    <glyph glyph-name="three" unicode="3" horiz-adv-x="1167" 
d="M1112 1290l2 -227q-3 -96 -61 -160q59 -69 59 -160v-499q0 -100 -72.5 -172t-173.5 -72h-569q-100 0 -172 72.5t-72 173.5v53h168v-23q0 -49 36 -78.5t89 -29.5h473q54 0 89.5 31t35.5 82v426q0 50 -35.5 80t-87.5 30l-475 2q0 -2 -2 -2v170h479q51 1 86 37.5t35 87.5
v143q0 50 -35.5 80.5t-89.5 30.5h-473q-53 0 -89 -29t-36 -80v-24h-168v55q0 101 72 173.5t172 72.5h569q101 0 173.5 -71.5t72.5 -172.5z" />
    <glyph glyph-name="four" unicode="4" horiz-adv-x="1294" 
d="M1006 643h235v-168h-235v-475h-168v475h-785v168l719 893h236zM270 643h666v12l-98 31v662zM270 643z" />
    <glyph glyph-name="five" unicode="5" horiz-adv-x="1169" 
d="M1116 745v-110l-2 -391q0 -100 -72.5 -172t-173.5 -72h-569q-100 0 -172 72.5t-72 173.5v55h168v-25q0 -49 36 -78.5t89 -29.5h473q53 0 89 31t36 82v413q0 52 -36 88.5t-89 36.5h-522q-101 0 -173.5 72.5t-72.5 173.5v469h815q101 0 173.5 -71.5t72.5 -172.5v-55h-168
v20q0 50 -36 80.5t-89 30.5h-696v-12l96 -29v-225q0 -50 36 -80.5t89 -30.5h522q101 0 173.5 -72t74.5 -172z" />
    <glyph glyph-name="six" unicode="6" horiz-adv-x="1169" 
d="M1116 635v-10v10zM1116 635l-2 -391q0 -100 -72.5 -172t-173.5 -72h-569q-101 0 -172.5 72.5t-71.5 173.5l-2 1044q0 101 71.5 173.5t172.5 72.5h571q101 0 173.5 -72t72.5 -172v-53h-168v23q0 50 -35 77t-90 27h-487q-51 0 -82 -35.5t-31 -89.5v-332l-96 -28v-13h743
q98 0 170 -68t78 -165zM946 281v299q0 52 -33 85t-86 33h-606l2 -422q0 -49 36 -77.5t89 -28.5h473q54 0 89.5 30t35.5 81z" />
    <glyph glyph-name="seven" unicode="7" horiz-adv-x="1165" 
d="M53 1534h1059v-168l-692 -1366h-189l666 1317l119 37v12h-963v168z" />
    <glyph glyph-name="eight" unicode="8" horiz-adv-x="1167" 
d="M1112 1290l2 -227q-3 -96 -61 -160q59 -69 59 -160v-499q0 -95 -59.5 -168.5t-149.5 -73.5h-639q-88 0 -148.5 74t-62.5 168v499q0 88 62 160q-62 65 -62 160v227q1 98 69 168.5t165 75.5h604q83 0 152 -78t69 -166zM944 285v422q0 50 -35.5 80t-87.5 30h-477
q-52 0 -86.5 -30t-34.5 -80l-2 -422q0 -49 31.5 -82t83.5 -33h495q52 0 82.5 33t30.5 82zM944 1112v145q0 48 -32 77t-81 32h-495q-49 -3 -82 -32t-33 -77v-145q0 -51 36 -87t87 -38h479q51 1 86 37.5t35 87.5z" />
    <glyph glyph-name="nine" unicode="9" horiz-adv-x="1167" 
d="M1112 1288l2 -1288h-815q-101 0 -172.5 72t-73.5 172v57h170v-27q0 -51 35 -78.5t90 -27.5h598v500h-647q-98 0 -169 68t-77 165v389q2 101 73.5 172.5t172.5 71.5h569q101 0 172.5 -72.5t71.5 -173.5zM340 838h704v12l-98 29l-2 378q0 51 -35.5 80t-89.5 29h-471
q-54 0 -89.5 -30.5t-35.5 -80.5l-2 -301q0 -51 33.5 -83.5t85.5 -32.5z" />
    <glyph glyph-name="colon" unicode=":" horiz-adv-x="296" 
d="M59 797q-13 37 4 73t54 50q15 6 33 6q29 0 53.5 -17.5t34.5 -46.5q13 -38 -4 -73.5t-54 -49.5q-15 -6 -33 -6q-29 0 -53.5 17.5t-34.5 46.5zM59 63q-13 37 4 73t54 50q18 7 33 7q30 0 54.5 -17.5t33.5 -46.5q12 -37 -5 -73.5t-53 -49.5q-15 -6 -33 -6q-30 0 -54 17
t-34 46z" />
    <glyph glyph-name="semicolon" unicode=";" horiz-adv-x="296" 
d="M80 162h137l-20 -359h-97zM59 797q-13 37 4 73t54 50q15 6 33 6q29 0 53.5 -17.5t34.5 -46.5q13 -38 -4 -73.5t-54 -49.5q-15 -6 -33 -6q-29 0 -53.5 17.5t-34.5 46.5z" />
    <glyph glyph-name="less" unicode="&#x3c;" horiz-adv-x="1067" 
d="M53 696l961 410v-186l-762 -326l762 -326v-186l-961 410v204z" />
    <glyph glyph-name="equal" unicode="=" horiz-adv-x="1069" 
d="M1016 963v-170h-963v170h963zM1016 627v-170h-963v170h963z" />
    <glyph glyph-name="greater" unicode="&#x3e;" horiz-adv-x="1067" 
d="M1014 492l-961 -410v186l762 326l-762 326v186l961 -410v-204z" />
    <glyph glyph-name="question" unicode="?" horiz-adv-x="1167" 
d="M586 123q13 -35 -4 -70t-52 -47q-37 -13 -70.5 2.5t-47.5 52.5q-12 35 4 70.5t51 48.5q37 12 72 -4.5t47 -52.5zM1112 1290l2 -227q-1 -98 -70 -168.5t-167 -75.5h-177q-49 -3 -82.5 -39t-33.5 -86v-450h-168l-2 499q2 99 70.5 170t166.5 74h176q49 3 83 39t34 86v143
q0 51 -36 81t-89 30h-473q-53 0 -89 -28.5t-36 -77.5v-25h-168v55q0 100 72 172t172 74h569q101 0 173.5 -72.5t72.5 -173.5z" />
    <glyph glyph-name="at" unicode="@" horiz-adv-x="1507" 
d="M819 205q-101 -96 -289 -66q-54 14 -104 54q-49 42 -72.5 108.5t-15.5 135.5t36 130.5t84 100.5t126 39h344v24h166v-362q0 -28 19.5 -48t47.5 -20h49q2 0 6 0.5t14 3t18 6.5t16 14t10 23q6 40 6 84q0 143 -70.5 264t-191.5 191.5t-264 70.5t-264.5 -70.5t-192 -191.5
t-70.5 -264t70.5 -264t192 -191.5t264.5 -70.5q169 0 301 96v-203q-140 -67 -301 -67q-190 0 -351.5 93.5t-255.5 255t-94 351.5t94 351.5t255.5 255.5t351.5 94t351.5 -94t255 -255.5t93.5 -351.5q0 -65 -10.5 -115t-36.5 -93.5t-75.5 -67t-121.5 -23.5q-11 0 -41.5 -0.5
t-43.5 -0.5t-40 2.5t-40.5 6.5t-34.5 12.5t-33 21t-24 31.5t-19 44l47 207h-14l-113 -193zM928 489v52h-326q-63 0 -90 -63q-26 -63 4 -131q35 -80 125 -92q32 -5 70 1q173 50 217 233z" />
    <glyph glyph-name="A" unicode="A" horiz-adv-x="1499" 
d="M809 1534zM809 1534zM809 1534v0v0zM809 1534zM1423 168h23v-168q-104 0 -173 31.5t-99 118.5l-140 438l-569 2l-135 -432q-18 -53 -44 -85.5t-64.5 -48t-74.5 -20t-94 -4.5v168h23q44 0 64 13.5t30 41.5l422 1313h315l416 -1298q8 -25 16 -37.5t29 -22.5t55 -10z
M518 758h557v12l-110 35l-215 670z" />
    <glyph glyph-name="B" unicode="B" horiz-adv-x="1288" 
d="M1229 686v-420q0 -66 -21 -117t-57 -81t-85 -48.5t-104.5 -20.5t-115.5 3q-77 9 -163.5 59.5t-161.5 122.5t-135.5 145.5t-102.5 141.5h-15l74 -252q0 -66 -19.5 -110.5t-59 -67.5t-87.5 -32t-117 -9v170h37q15 0 27 3t20 6t13.5 12.5t8 14t4 19.5t1.5 20.5v24.5v25v1241
h696q101 0 173.5 -71.5t72.5 -172.5v-213q0 -76 -35 -135q152 -76 152 -258zM1001 1282v-2v2zM342 961h487q48 3 81.5 39t33.5 85v158q0 51 -37 88t-88 37h-477v-407zM1061 295v367q0 65 -35 97t-90 32h-594v-312q16 -22 76 -69.5t142.5 -102.5t183 -96t178.5 -41
q60 0 99.5 33t39.5 92zM-1137 393z" />
    <glyph glyph-name="C" unicode="C" horiz-adv-x="1169" 
d="M1116 1233h-170v37q0 40 -28 68t-68 28h-531q-40 0 -68 -28t-28 -68v-1004q0 -40 28 -68t68 -28h531q40 0 68 28t28 68v37h168v-57q0 -104 -68 -174.5t-178 -71.5h-569q-104 0 -175 69t-71 179v1042q0 106 71.5 176t174.5 70h569q101 0 173.5 -72.5t74.5 -173.5v-57z" />
    <glyph glyph-name="D" unicode="D" horiz-adv-x="1282" 
d="M229 256zM285 356h2h-2zM170 272v1264h639q180 0 300 -146t120 -358v-530q-2 -117 -31.5 -206.5t-77 -144.5t-116.5 -90t-142 -48t-162 -13q-185 0 -364 223l-74 113h-12l20 -143q-4 -115 -54.5 -154t-162.5 -39v156q64 0 91 25.5t26 90.5zM336 412zM1059 502v530
q0 86 -26.5 155t-66 107.5t-80.5 59t-77 20.5h-471l-2 -1040q4 -14 33 -44.5t76 -66.5t121 -62.5t151 -25.5q76 6 135.5 29t97.5 57t63 80t35 95t11 106z" />
    <glyph glyph-name="E" unicode="E" horiz-adv-x="1165" 
d="M125 182v-12h987v-170h-1059v1536h1059v-170l-889 2v-364l-98 -31v-12h987v-170l-889 2l-2 -582zM188 211z" />
    <glyph glyph-name="F" unicode="F" horiz-adv-x="1165" 
d="M125 961h987v-170h-889l-2 -791h-168v1536h1059v-170h-889v-365l-98 -28v-12z" />
    <glyph glyph-name="G" unicode="G" horiz-adv-x="1292" 
d="M227 414h-2h2zM436 289zM436 88zM385 125zM385 125zM1227 797l2 -797h-168v76l94 352h-14l-80 -139q-249 -244 -397 -279q-136 -29 -265.5 14.5t-220.5 149.5q-118 135 -121 336l-4 471q0 127 42 233.5t112.5 176t162 107.5t191.5 38h160q121 0 220 -44.5t164 -122
t100 -181t34 -221.5h-160q0 189 -104 303q-54 58 -126 81t-173 23h-66q-199 0 -291 -102q-96 -107 -96 -291v-416q2 -139 77.5 -248.5t203.5 -150.5q65 -10 120.5 -8.5t111.5 20.5t102 41.5t89.5 55t74.5 61t59 59.5l2 234h-80q-53 0 -89 -32.5t-36 -84.5h-168v43
q1 100 72.5 170t171.5 70z" />
    <glyph glyph-name="H" unicode="H" horiz-adv-x="1284" 
d="M1061 1536h170l-2 -1536h-168v750l98 28v13l-936 2l-2 -793h-168v1536h170v-532l-98 -31v-12h936v575z" />
    <glyph glyph-name="I" unicode="I" horiz-adv-x="276" 
d="M221 0h-168v1536h170z" />
    <glyph glyph-name="J" unicode="J" horiz-adv-x="1169" 
d="M874 1540h242v-1018q0 -225 -141 -373.5t-354 -148.5h-46q-159 0 -280 82t-181.5 212t-60.5 284h150v-9q0 -174 113 -298t280 -124q165 0 266 122t101 300v766l81 25v12h-165q-125 0 -125 -117h-168q0 130 71.5 207.5t216.5 77.5z" />
    <glyph glyph-name="K" unicode="K" horiz-adv-x="1390" 
d="M1253 168h84v-168h-131q-101 0 -173 72t-72 172v360q0 52 -37 88.5t-88 36.5h-613l-2 -729h-168v1536h170v-596l-98 -31v-12h293l481 639h213l-481 -639h252q101 0 173 -71.5t72 -172.5v-360q0 -51 37 -88t88 -37z" />
    <glyph glyph-name="L" unicode="L" horiz-adv-x="1273" 
d="M125 170h1096v-170h-1168v1536h170l-2 -1325l-96 -29v-12z" />
    <glyph glyph-name="M" unicode="M" horiz-adv-x="1599" 
d="M1225 1536h321v-1536h-164h-6v1460l-391 -661h-369l-393 663l-2 -1462h-168v1536h322l426 -719z" />
    <glyph glyph-name="N" unicode="N" horiz-adv-x="1284" 
d="M1061 1536h170l-2 -1536h-322l-684 1462l-2 -1462h-168v1536h322l686 -1468v1468z" />
    <glyph glyph-name="O" unicode="O" horiz-adv-x="1286" 
d="M733 1536q217 0 358.5 -140t141.5 -356v-518q0 -143 -64 -262.5t-179 -189.5t-257 -70h-158q-106 0 -203 41t-167 111t-111 167t-41 203v518q0 214 151.5 355t370.5 141h158zM1065 995q0 178 -99 275.5t-278 97.5h-67q-182 0 -291 -98.5t-109 -274.5v-426
q0 -179 111 -290t289 -111h67q176 0 276.5 110t100.5 291v426z" />
    <glyph glyph-name="P" unicode="P" horiz-adv-x="1138" 
d="M1085 1262l-2 -285q0 -117 -79 -182.5t-195 -65.5h-586l-2 -729h-168v1536h785q116 0 181.5 -79.5t65.5 -194.5zM915 1022v219q0 52 -37 88.5t-90 36.5h-565v-426l-98 -31v-12h663q52 0 89.5 37t37.5 88z" />
    <glyph glyph-name="Q" unicode="Q" horiz-adv-x="1286" 
d="M53 1040q0 141 70.5 255.5t189.5 177.5t262 63h158q217 0 358.5 -140t141.5 -356v-518q0 -108 -40 -206.5t-110 -170.5l144 -145h-240l-45 45q-99 -47 -252 -47q-37 2 -115 2q-106 0 -202.5 41.5t-166.5 111.5t-111.5 166.5t-41.5 202.5v518zM221 995v-424
q0 -179 111 -291t289 -112h38q87 0 146 14l-135 135h239l47 -47q109 109 109 301v424q0 178 -99 275.5t-278 97.5h-67q-182 0 -291 -98.5t-109 -274.5z" />
    <glyph glyph-name="R" unicode="R" horiz-adv-x="1327" 
d="M1157 289q0 -67 21.5 -94t95.5 -27v-168h-39q-77 0 -133 41q-50 31 -81.5 85.5t-31.5 111.5v366q0 52 -37 88.5t-88 36.5h-641l-2 -729h-168v1536h813q101 0 172.5 -72t73.5 -174h-2l2 -313q0 -73 -41 -137q86 -76 86 -187v-364zM942 1022v219q0 53 -36 89t-89 36h-594
v-426l-98 -31v-12h700q49 3 83 39t34 86z" />
    <glyph glyph-name="S" unicode="S" horiz-adv-x="1169" 
d="M1116 1235h-172q0 131 -123 131h-473q-52 0 -88.5 -36t-36.5 -89v-248q0 -53 36.5 -89t88.5 -36h520q101 0 173.5 -72t72.5 -173v-377q0 -101 -72.5 -173.5t-173.5 -72.5h-569q-101 0 -173.5 73.5t-72.5 174.5v51h170q0 -59 26.5 -94t98.5 -35h473q51 0 87 36t38 87v280
q0 51 -37 88t-88 37h-520q-103 0 -175.5 72.5t-72.5 173.5v346q0 101 72.5 173.5t173.5 72.5h569q101 0 173.5 -72.5t74.5 -173.5v-55z" />
    <glyph glyph-name="T" unicode="T" horiz-adv-x="1280" 
d="M53 1536h1174v-170h-502v-1366h-170v1325l98 29v12h-600v170z" />
    <glyph glyph-name="U" unicode="U" horiz-adv-x="1286" 
d="M948 334v1202h168v-1262q-3 -119 117 -104v-170q-38 -1 -67.5 1.5t-60 14t-50 32.5t-31 58t-8.5 89l49 170h-14l-74 -113q-65 -82 -120 -132.5t-133 -85t-169 -34.5q-105 0 -205.5 49.5t-171.5 130.5q-123 145 -123 332l-2 1024h170v-969q2 -139 78.5 -249.5
t204.5 -149.5q74 -15 140 -5t120 33.5t94 53t62.5 52t25.5 32.5zM1116 293v2v-2z" />
    <glyph glyph-name="V" unicode="V" horiz-adv-x="1427" 
d="M1196 1536h178l-504 -1536h-315l-502 1536h178l482 -1475z" />
    <glyph glyph-name="W" unicode="W" horiz-adv-x="2703" 
d="M2472 1536h178l-502 -1536h-315l-481 1468l-482 -1468h-315l-502 1536h178l482 -1475l483 1475h311l484 -1475z" />
    <glyph glyph-name="X" unicode="X" horiz-adv-x="1351" 
d="M778 770l520 -768h-204l-418 619l-418 -619h-205l520 768l-518 766h205l416 -614l414 614h204z" />
    <glyph glyph-name="Y" unicode="Y" horiz-adv-x="1345" 
d="M1087 1534h205l-534 -791v-743h-170l2 741l-537 793h205l416 -614z" />
    <glyph glyph-name="Z" unicode="Z" horiz-adv-x="1286" 
d="M152 182v-12h1081v-170h-1178v170l908 1130l172 54v12h-1082v170h1178v-170l-907 -1133zM152 170z" />
    <glyph glyph-name="bracketleft" unicode="[" horiz-adv-x="501" 
d="M449 1536h-226l-2 -1536h228v-172l-396 2v1876h396v-170z" />
    <glyph glyph-name="backslash" unicode="\" horiz-adv-x="1028" 
d="M53 1536h189l733 -1536h-187z" />
    <glyph glyph-name="bracketright" unicode="]" horiz-adv-x="501" 
d="M279 -4v1540h-226v170h226q27 0 84 -1t86 -1v-1876h-396v170q101 0 226 -2z" />
    <glyph glyph-name="asciicircum" unicode="^" horiz-adv-x="1101" 
d="M236 367h-183l371 964h194l431 -964h-187l-336 759z" />
    <glyph glyph-name="underscore" unicode="_" horiz-adv-x="1130" 
d="M53 -86h1024v-170h-1024v170z" />
    <glyph glyph-name="grave" unicode="`" 
d="M8 1438h287l176 -312h-213z" />
    <glyph glyph-name="a" unicode="a" horiz-adv-x="1075" 
d="M764 283zM766 289zM766 287v0v0zM106 229zM106 229zM975 168h47v-168h-121q-55 0 -98 32.5t-58 84.5l66 284h-14l-78 -139q-25 -44 -54.5 -83.5t-69.5 -79.5t-91 -66t-105 -31q-177 -19 -264 61q-73 67 -82 164v101q0 101 72.5 173t173.5 72h440v66q0 67 -35 111.5
t-96 44.5h-239q-35 0 -57.5 -4t-46 -17t-35 -41.5t-11.5 -73.5h-166v56q0 101 72.5 173.5t173.5 72.5h360q101 0 173.5 -72.5t72.5 -173.5v-479q0 -28 20.5 -48t49.5 -20zM739 356v52h-422q-38 0 -62.5 -22.5t-32 -55.5t-4 -69t17.5 -64q25 -49 77.5 -66.5t112.5 -7.5
q173 47 313 233zM737 295zM739 299zM739 299v0v0zM53 240zM53 240z" />
    <glyph glyph-name="b" unicode="b" horiz-adv-x="1075" 
d="M745 961q114 0 195.5 -81.5t81.5 -195.5v-408q0 -106 -58 -184t-149 -88q-64 -7 -123.5 10.5t-100.5 41.5t-93.5 80.5t-78 90.5t-78.5 109q-2 3 -3 4l-41 59h-14l55 -225q-6 -74 -60.5 -124t-127.5 -50h-97v170h78q15 0 27 12t12 27v1327h170v-598q54 23 106 23h299z
M852 295v371q0 52 -36 88.5t-89 36.5h-262q-50 0 -86 -34t-39 -83v-250q1 -1 18 -24.5t27 -36.5t34.5 -40.5t44.5 -44.5t52 -40t62 -36t69.5 -22.5t79.5 -9.5q53 0 89 36t36 89z" />
    <glyph glyph-name="c" unicode="c" horiz-adv-x="1017" 
d="M53 276v408q0 127 78.5 202t196.5 75h360q114 0 195.5 -81.5t81.5 -195.5v-86h-170v68q0 52 -36.5 88.5t-88.5 36.5h-322q-52 0 -88.5 -36.5t-36.5 -88.5v-377q1 -51 37.5 -85t87.5 -34l322 -2q52 0 88.5 37t36.5 88v69h170v-88q0 -114 -81.5 -194t-195.5 -80h-360
q-114 0 -194.5 81t-80.5 195z" />
    <glyph glyph-name="d" unicode="d" horiz-adv-x="1075" 
d="M53 276v408q0 114 81.5 195.5t195.5 81.5h299q49 0 106 -23v598h170v-1327q0 -17 11 -28t28 -11h78v-170h-96q-73 0 -128 50t-63 122l58 227h-15l-41 -61q-41 -62 -71 -103t-74.5 -90t-85.5 -77.5t-95 -48t-112 -19.5q-113 0 -179.5 79.5t-66.5 196.5zM348 791
q-52 0 -88.5 -36.5t-36.5 -88.5v-371q0 -53 36.5 -89t88.5 -36q36 0 70.5 6.5t64.5 20t56 27.5t50.5 35t42 37t36.5 39t28.5 35t23 31t15.5 21v252q-3 49 -39 83t-86 34h-262z" />
    <glyph glyph-name="e" unicode="e" horiz-adv-x="1017" 
d="M238 698l-43 66h-15l43 -180v-295q1 -51 37.5 -86t87.5 -35h322q52 0 88.5 37t36.5 88v8h170v-27q0 -114 -81.5 -194t-195.5 -80h-364q-117 0 -192.5 67.5t-78.5 186.5v446q0 114 79.5 187.5t195.5 73.5h360q114 0 195.5 -81.5t81.5 -195.5v-63q-6 -88 -63.5 -158
t-143.5 -92q-74 -17 -178 -6q-76 5 -160 55q-35 21 -80.5 90.5t-73.5 128.5zM348 791q-56 0 -90 -37q43 -49 98 -95t143 -87.5t171 -41.5q59 0 92 41t33 101q-2 50 -38 84.5t-87 34.5h-322z" />
    <glyph glyph-name="f" unicode="f" horiz-adv-x="987" 
d="M297 961h637v-170h-539v-791h-170v791h-172v170h172v307q3 113 82 190.5t193 77.5h157q114 0 195.5 -80t81.5 -194v-86h-170v67q0 53 -36 89t-89 36h-119q-50 0 -86 -34t-39 -83v-247l-98 -31v-12z" />
    <glyph glyph-name="g" unicode="g" horiz-adv-x="1142" 
d="M801 774q0 80 56.5 136.5t135.5 56.5h97v-170h-78q-17 0 -28 -12t-11 -29v-1053q0 -115 -81.5 -196.5t-197.5 -81.5h-362q-116 0 -197.5 81.5t-81.5 196.5v27h170v-9q0 -52 37 -88t90 -36h326q53 0 89 36t36 88v302q-54 -23 -107 -23h-375q-117 0 -191.5 72.5
t-74.5 189.5v426q0 215 209 268q69 17 178 9q79 -9 144 -47q36 -21 68 -57.5t50.5 -66t46.5 -79.5t42 -72l47 -84h14l-51 213v2zM801 289v235q-18 24 -38 48t-66 67.5t-92 75t-111.5 56t-128.5 24.5h-15q-53 0 -90 -36.5t-37 -88.5v-373q0 -53 37.5 -90t89.5 -37h326
q50 0 86 34t39 85z" />
    <glyph glyph-name="h" unicode="h" horiz-adv-x="1132" 
d="M1004 170h75v-168h-94q-79 0 -134.5 55.5t-55.5 135.5v479q0 51 -36.5 88t-88.5 37h-15q-63 0 -127.5 -24t-111 -56.5t-91 -75t-65.5 -68t-37 -47.5v-526h-170v1536h170q-2 -762 0 -762v-2l-45 -203h15l40 76q8 12 46.5 81t72 114t68.5 67q3 2 9 5.5t9 5.5q74 40 142 45
q104 8 178 -7q90 -25 148.5 -99.5t58.5 -166.5l-2 -479q0 -17 12 -29t29 -12z" />
    <glyph glyph-name="i" unicode="i" horiz-adv-x="393" 
d="M293 166l47 2v-168h-121h-10q-66 4 -111 53t-45 115v793h170v-725q0 -42 15.5 -56t54.5 -14zM227 1149q14 -37 -3 -73t-54 -48q-37 -13 -73 3.5t-50 53.5q-12 37 4.5 73t52.5 48q38 13 73.5 -3.5t49.5 -53.5z" />
    <glyph glyph-name="j" unicode="j" horiz-adv-x="503" 
d="M444 1190q14 -37 -3 -73t-54 -48q-37 -13 -73 3.5t-50 53.5q-12 37 5 73t53 48q38 13 73 -3.5t49 -53.5zM440 961v-1258q0 -115 -81 -196.5t-197 -81.5h-254q-116 0 -197.5 81.5t-81.5 196.5v27h172v-9q0 -52 36 -88t89 -36h217q53 0 90 36t37 88v1240h170z" />
    <glyph glyph-name="k" unicode="k" horiz-adv-x="1134" 
d="M1004 170h77v-168h-96q-78 0 -134 56t-56 135v147q0 51 -36.5 88t-88.5 37h-447v-465h-170v1536h170q-2 -670 0 -670l-49 -207h14l45 80q54 87 187 168q3 2 9 5.5t9 5.5q74 40 142 45q104 8 178 -7q90 -25 148.5 -99.5t58.5 -166.5v-35h-170v17q0 51 -36.5 88t-88.5 37
h-15q-118 0 -219.5 -50t-171.5 -114h424q110 0 190.5 -75.5t86.5 -184.5v-162q0 -17 11 -29t28 -12z" />
    <glyph glyph-name="l" unicode="l" horiz-adv-x="393" 
d="M53 168v1368h172l-2 -1300q0 -42 15.5 -55t54.5 -13h47v-168h-121h-10q-66 4 -111 53t-45 115z" />
    <glyph glyph-name="m" unicode="m" horiz-adv-x="1873" 
d="M965 2v-2l-2 4q0 -2 2 -2zM1745 170h76v-168h-95q-79 0 -134.5 55.5t-55.5 135.5v479q0 51 -36.5 88t-88.5 37h-16q-63 0 -127 -24t-110.5 -56.5t-90.5 -75t-65 -68t-37 -47.5v-319q2 -15 13 -26t26 -11h75v-168h-94h-20l-2 2q-71 8 -119.5 62t-48.5 127v479
q0 51 -36.5 88t-88.5 37h-15q-63 0 -127.5 -24t-111 -56.5t-91 -75t-65.5 -68t-37 -47.5v-526h-170v961h170q-2 -189 0 -189l-49 -207h14l45 80q13 21 41 71.5t46.5 80.5t50.5 66t67 55q67 37 156 46.5t164 -8.5q67 -19 124.5 -70.5t80.5 -113.5h2l-50 -207h15l45 80
q13 21 41 71.5t46.5 80.5t50.5 66t67 55q67 37 155.5 46.5t163.5 -8.5q90 -25 148.5 -99.5t58.5 -166.5l-2 -479q0 -17 12 -29t29 -12z" />
    <glyph glyph-name="n" unicode="n" horiz-adv-x="1132" 
d="M1004 170h75v-168h-94q-79 0 -134.5 55.5t-55.5 135.5v479q0 51 -36.5 88t-88.5 37h-15q-63 0 -127.5 -24t-111 -56.5t-91 -75t-65.5 -68t-37 -47.5v-526h-170v961h170q-2 -187 0 -187v-2l-45 -203h15l40 76q13 21 41 71.5t46.5 80.5t50.5 66t67 55q67 37 156 46.5
t164 -8.5q90 -25 148.5 -99.5t58.5 -166.5l-2 -479q0 -17 12 -29t29 -12z" />
    <glyph glyph-name="o" unicode="o" horiz-adv-x="1017" 
d="M53 715q0 101 72.5 173.5t173.5 72.5h420q101 0 173.5 -72.5t72.5 -173.5v-469q0 -101 -72.5 -173.5t-173.5 -72.5h-420q-99 0 -172.5 68.5t-73.5 164.5v482zM352 795q-64 0 -98.5 -34t-34.5 -97v-373q0 -127 133 -127h316q63 0 96 35t33 98v367q0 63 -33 97t-96 34h-316
z" />
    <glyph glyph-name="p" unicode="p" horiz-adv-x="1132" 
d="M879 956q97 -25 148.5 -88.5t51.5 -185.5v-408q0 -119 -70.5 -196.5t-199.5 -77.5h-365q-50 0 -104 23v-598h-170v911v414q0 17 -11.5 27.5t-27.5 10.5h-78v170h97q78 0 133 -56t55 -134v-4l-47 -207h14l45 80q8 13 35 62.5t45.5 80t48.5 67t58 52.5q74 45 165.5 61.5
t176.5 -4.5zM911 295v369q0 52 -36 88t-89 36h-16q-63 0 -127.5 -24t-110 -55t-91 -74.5t-65.5 -67t-38 -47.5v-233q0 -49 38.5 -83t88.5 -34h321q52 0 88.5 36t36.5 89z" />
    <glyph glyph-name="q" unicode="q" horiz-adv-x="1134" 
d="M795 -385v405q-52 -22 -107 -22h-360q-114 0 -194.5 81t-80.5 195v406q0 94 58.5 169t148.5 97q66 16 176 8q74 -9 142 -45l18 -12q28 -16 58 -52.5t48 -67.5t45 -79.5t35 -62.5l47 -80h13l-47 207v4q0 78 56 134t134 56h94v-170h-75q-17 0 -28 -10.5t-11 -27.5v-1104
q0 -24 10.5 -38t28.5 -14h77v-167h-96q-78 0 -134 55.5t-56 134.5zM795 285v233q-18 24 -38 48t-65.5 67t-91.5 74t-110.5 55t-127.5 24h-14q-53 0 -89 -36t-36 -88v-369q0 -53 36.5 -89t88.5 -36h322q50 0 86 34t39 83z" />
    <glyph glyph-name="r" unicode="r" horiz-adv-x="1132" 
d="M1079 684v-29h-168v17q-3 51 -38.5 86t-86.5 35h-16q-63 0 -127 -24t-110.5 -56t-91 -74.5t-65.5 -68t-38 -48.5l2 -522h-170v754q0 15 -12 27t-27 12h-78v168h97q69 0 123 -50.5t65 -119.5v-23l-19 -88l-28 -121h12l47 82q13 21 41 71.5t46.5 80.5t50.5 65.5t67 54.5
q85 45 190 48q334 -12 334 -277z" />
    <glyph glyph-name="s" unicode="s" horiz-adv-x="1011" 
d="M956 662h-170v6q0 120 -118 125h-340q-48 0 -78.5 -33t-30.5 -80q0 -48 30 -79.5t79 -31.5l360 -2q25 0 35 -2q60 -8 107.5 -37t75.5 -70t42 -91.5t11.5 -101t-22 -98.5t-52 -85t-84 -59.5t-113.5 -22.5h-358q-141 0 -208 81t-67 222h168v-16q3 -50 38.5 -84.5
t86.5 -34.5h328q51 0 85 33.5t34 83.5q0 44 -30.5 76.5t-76.5 37.5q-53 5 -112.5 5t-132.5 -2.5t-113 -2.5q-21 0 -66 9q-69 15 -119 62t-72.5 107.5t-18.5 128t33.5 124t92.5 93.5t150 38h358q121 -1 194.5 -79.5t73.5 -195.5v-24z" />
    <glyph glyph-name="t" unicode="t" horiz-adv-x="1130" 
d="M909 362h168v-88q0 -131 -73 -202.5t-191 -71.5h-326q-66 0 -118.5 23.5t-83.5 62.5t-46.5 85.5t-13.5 94.5v525h-172v170h271v12l-99 31v532h170v-575h539v-170h-539v-506q0 -117 125 -117h264q125 0 125 113v81z" />
    <glyph glyph-name="u" unicode="u" horiz-adv-x="1132" 
d="M965 209q0 -17 11 -28t28 -11h75v-170h-94q-78 0 -134 56t-56 134l47 211h-13l-47 -79q-89 -147 -136 -200q-90 -102 -218 -117q-73 -9 -170 7q-89 13 -147 90.5t-58 173.5v685h170v-666q0 -53 36.5 -89t88.5 -36h14q63 0 127.5 24t110.5 55t91.5 74t65.5 67t38 48v523
h170v-15v-737z" />
    <glyph glyph-name="v" unicode="v" horiz-adv-x="1126" 
d="M891 961h186l-409 -961h-205l-410 961h187l325 -762z" />
    <glyph glyph-name="w" unicode="w" horiz-adv-x="2095" 
d="M53 961h189l325 -762l326 762h313l326 -762l326 762h186l-410 -961h-204l-381 891l-379 -891h-205z" />
    <glyph glyph-name="x" unicode="x" horiz-adv-x="1146" 
d="M1094 961l-408 -480l408 -481h-224l-297 350l-297 -350h-223l408 481l-408 480h223l297 -351l297 351h224z" />
    <glyph glyph-name="y" unicode="y" horiz-adv-x="1132" 
d="M911 961h168v-1260q0 -114 -80 -194t-194 -80h-361q-114 0 -195 80t-81 194v27h170v-9q0 -51 36.5 -88t88.5 -37h321q52 0 89.5 37t37.5 88v467v4l47 207h-12l-47 -80q-15 -24 -43.5 -74.5t-43 -74t-44 -60.5t-56.5 -55t-68 -34.5t-91 -20.5q-73 -6 -138.5 5t-122 40.5
t-89.5 88t-33 140.5v480q0 17 -11.5 28t-27.5 11h-78v170h97q78 0 133 -56.5t55 -134.5v-479q0 -52 37 -88.5t88 -36.5h16q63 0 127.5 24t110 55t91 74.5t65.5 67t38 47.5v527z" />
    <glyph glyph-name="z" unicode="z" horiz-adv-x="1013" 
d="M870 760zM227 182v-12h734v-170h-908v170l600 571l125 39v13h-725v168h908v-170l-605 -570zM903 788h-2h2z" />
    <glyph glyph-name="braceleft" unicode="{" horiz-adv-x="696" 
d="M418 1413v-483q0 -95 -62 -160q62 -68 62 -160v-485q0 -53 30.5 -89t81.5 -36h113v-168h-149q-101 0 -172.5 72.5t-71.5 173.5v495q0 51 -36 82t-89 31l-70 -2h-2v170h72q51 0 88 36.5t37 88.5v481q0 101 71.5 173.5t172.5 72.5l149 2v-170h-113q-51 0 -81.5 -36
t-30.5 -89z" />
    <glyph glyph-name="bar" unicode="|" horiz-adv-x="276" 
d="M223 -215h-170v1954h170v-1954z" />
    <glyph glyph-name="braceright" unicode="}" horiz-adv-x="696" 
d="M53 1536v170l150 -2q102 -2 174 -73.5t72 -172.5v-493q0 -51 35 -81t89 -30h68h2v-170h-70q-52 0 -88 -36t-36 -89v-481q0 -101 -72.5 -173.5t-173.5 -72.5h-150v170l115 -2q50 0 80.5 36t30.5 89v483q0 91 61 162q-61 71 -61 160v481q0 53 -30.5 89t-80.5 36h-115z" />
    <glyph glyph-name="asciitilde" unicode="~" horiz-adv-x="1150" 
d="M53 393q-1 196 76 289.5t209 93.5q70 0 129 -21.5t158 -74.5q8 -4 28.5 -15.5t27 -15t23.5 -12.5t23.5 -12t20 -9t20.5 -8l17.5 -5t19 -4t16.5 -1q77 0 82 166h195q8 -204 -67.5 -294.5t-205.5 -90.5q-69 0 -131 22.5t-155 73.5q-56 33 -82 47.5t-58 26.5t-55 12
q-42 0 -66 -37t-30 -131h-195z" />
    <glyph glyph-name="uni00A0" unicode="&#xa0;" horiz-adv-x="413" 
 />
    <glyph glyph-name="exclamdown" unicode="&#xa1;" horiz-adv-x="548" 
d="M113 -391l45 926h233l45 -926h-323zM92 825q0 82 51 134.5t131 52.5h5q79 0 129.5 -52.5t50.5 -134.5q-2 -83 -51.5 -134.5t-131.5 -51.5q-83 0 -133.5 52t-50.5 134z" />
    <glyph glyph-name="cent" unicode="&#xa2;" horiz-adv-x="1015" 
d="M963 770h-170v70q0 51 -36.5 87t-88.5 36h-322q-51 0 -88 -36t-37 -87v-383q3 -50 39.5 -84.5t85.5 -34.5h322q52 0 88.5 36t36.5 89v67h170v-86q0 -114 -80.5 -194t-194.5 -80h-96v-170h-170v170h-94q-107 0 -186.5 73.5t-88.5 180.5v20v412q0 114 80.5 195.5
t194.5 81.5h94v167h170v-167h96q114 0 194.5 -81.5t80.5 -195.5v-86z" />
    <glyph glyph-name="sterling" unicode="&#xa3;" horiz-adv-x="1286" 
d="M225 1266v-6v6zM383 170h850v-170h-1180v170h82q30 5 49 18t27.5 34.5t11 41.5t2.5 51v93v354h-172v170h172v328v6q3 111 83 189.5t192 78.5h157q114 0 194.5 -80t80.5 -194v-86h-170v67q0 53 -36 89t-89 36h-119q-49 0 -84.5 -33.5t-38.5 -83.5v-274l-98 -31v-12h98h537
v-170h-537v-354v-162q0 -38 -12 -76z" />
    <glyph glyph-name="currency" unicode="&#xa4;" horiz-adv-x="1136" 
d="M215 926l-178 157l137 142l158 -174q93 75 237 75q143 0 238 -73l156 172l137 -140l-178 -159q65 -111 65 -238q0 -147 -72 -246l175 -166l-136 -137l-149 180q-46 -39 -111 -60t-129 -21q-66 0 -130 20t-107 57l-148 -176l-133 137l170 162q-74 102 -74 244
q0 135 72 244zM377 684q0 -113 58 -175.5t130 -62.5q76 0 132.5 62t56.5 178q0 101 -53.5 166.5t-137.5 65.5q-79 0 -132.5 -65t-53.5 -169z" />
    <glyph glyph-name="yen" unicode="&#xa5;" horiz-adv-x="1480" 
d="M1427 1434l-483 -686h162v-170h-281v-160h281v-170h-281v-248h-170v248h-280v170h280v160h-280v170h164l-486 686h205l483 -682l482 682h204z" />
    <glyph glyph-name="brokenbar" unicode="&#xa6;" horiz-adv-x="579" 
d="M180 356h217v-716h-217v716zM397 664h-217v716h217v-716z" />
    <glyph glyph-name="section" unicode="&#xa7;" horiz-adv-x="1148" 
d="M176 647q-1 3 -3 9.5t-3 9.5q1 -3 3 -9.5t3 -9.5zM0 698v-10v10zM903 748q0 1 -1 3t-1 3v2q0 -4 2 -8zM909 1057h-168v6q0 52 -37 88.5t-88 36.5h-323q-48 0 -85.5 -34t-37.5 -79q0 -46 37 -78t86 -32l199 -2h143q25 0 37 -2q113 -15 184 -109v-2q2 -2 10 -14q5 -7 8 -17
q1 -1 3.5 -4t3.5 -4q4 -8 4 -10q4 -8 4 -10q4 -8 4 -11v-2q4 -4 4 -10q1 -1 2 -4.5t2 -5.5v-2q0 -4 2 -8v-7q2 -4 2 -8q0 -1 1 -3.5t1 -4.5v-6q0 -6 2 -8v-9v-12v-2v-18v-6q-3 -107 -73 -183q50 -53 65 -123q8 -27 8 -63v-21v-4q-1 -112 -81 -191t-193 -79h-361
q-107 0 -186 74t-88 180v22v29h168v-12v-6q3 -49 39 -83t86 -34h90v-2h233q50 0 86.5 34t36.5 83q0 37 -24 67.5t-62 42.5q-16 4 -26 4q-4 2 -11 2h-129h-213q-33 0 -63 9q-82 19 -139.5 81.5t-69.5 147.5q-2 12 -2 37v12v10q0 5 1 14.5t1 14.5q12 85 76 152q-64 68 -76 153
q-2 12 -2 39v10q0 27 2 39q14 100 92 169t180 69h361q114 0 194 -81.5t80 -195.5v-24zM616 795h-323q-48 0 -85.5 -34t-37.5 -79v-12v-4q1 -3 3 -9.5t3 -9.5q12 -37 44.5 -60.5t72.5 -23.5h90h233q18 0 39 6q36 11 60 41t24 68v4q-5 47 -40.5 80t-82.5 33zM909 664zM909 670
v-6v6zM909 274v-4v4z" />
    <glyph glyph-name="dieresis" unicode="&#xa8;" 
d="M520 1139q-60 0 -100.5 42.5t-40.5 102.5q0 62 41 102.5t104 40.5q60 0 101 -41t41 -102t-40.5 -103t-101.5 -42h-4zM92 1139q-61 0 -103 42.5t-42 102.5q0 61 42.5 102t104.5 41q59 0 99 -41t40 -102t-40 -103t-101 -42z" />
    <glyph glyph-name="copyright" unicode="&#xa9;" horiz-adv-x="1466" 
d="M53 680q0 138 54 264t145 217t217 145t264 54t264 -54t217 -145t145 -217t54 -264t-54 -264t-145 -217t-217 -145t-264 -54t-264 54t-217 145t-145 217t-54 264zM225 678q0 -209 147.5 -356.5t356.5 -147.5q136 0 251.5 67.5t183 183.5t67.5 253q0 136 -67.5 251.5
t-183 183t-251.5 67.5q-137 0 -253 -67.5t-183.5 -183t-67.5 -251.5zM348 848q0 106 67 168.5t167 62.5h303q95 0 163 -68t68 -163v-74h-143v57q0 43 -31 74t-74 31h-272q-43 0 -73.5 -31t-30.5 -74v-319q1 -41 32 -70.5t72 -29.5h272q43 0 74 31t31 75v57h143v-73
q0 -95 -68 -163.5t-163 -68.5h-303q-97 0 -165.5 68.5t-68.5 163.5v346z" />
    <glyph glyph-name="ordfeminine" unicode="&#xaa;" horiz-adv-x="774" 
d="M293 535q-97 0 -162 52t-65 148q0 116 108.5 177t298.5 61v14q0 9 -4.5 20t-16.5 25t-39.5 23.5t-66.5 9.5q-107 0 -190 -51l-41 131q111 65 272 65q81 0 141 -23t94 -63.5t50 -90t16 -109.5v-219q0 -95 10 -160h-190l-14 67h-5q-80 -77 -196 -77zM276 754
q0 -35 26 -57.5t65 -22.5q46 0 79 31.5t33 76.5v70h-10q-86 0 -139.5 -24t-53.5 -74z" />
    <glyph glyph-name="guillemotleft" unicode="&#xab;" horiz-adv-x="987" 
d="M934 870l-285 -284l281 -279l-121 -121l-279 281l-120 119l403 405zM578 870l-285 -284l280 -279l-120 -121l-400 400l121 121l283 284z" />
    <glyph glyph-name="logicalnot" unicode="&#xac;" horiz-adv-x="1220" 
d="M82 864h1057v-647h-199v457h-858v190z" />
    <glyph glyph-name="uni00AD" unicode="&#xad;" horiz-adv-x="595" 
d="M498 170v-170h-498v170h498z" />
    <glyph glyph-name="registered" unicode="&#xae;" horiz-adv-x="833" 
d="M53 1051q0 146 107.5 250t259.5 104q151 0 255.5 -103.5t104.5 -250.5q0 -148 -104.5 -251.5t-257.5 -103.5q-151 0 -258 104t-107 251zM416 1317q-109 0 -187.5 -79t-78.5 -189q0 -109 79 -187t189 -78q110 -1 189 77.5t79 189.5q0 109 -79 187.5t-191 78.5zM334 866
h-47v373h198q25 0 42.5 -17t17.5 -42v-76q0 -27 -19 -43q29 -16 29 -51v-82q0 -11 3 -14t13 -3h13v-45h-35q-17 0 -28 11.5t-11 27.5v101q0 15 -11 25.5t-26 10.5h-139v-176zM315 1092v-2h164q19 0 19 18l2 70q0 6 -6.5 11t-14.5 5h-145v-96z" />
    <glyph glyph-name="macron" unicode="&#xaf;" 
d="M53 1364h512v-172h-512v172z" />
    <glyph glyph-name="degree" unicode="&#xb0;" horiz-adv-x="729" 
d="M55 1100q-1 127 90.5 216t223.5 89q135 0 222 -87.5t87 -211.5q0 -131 -92 -218t-221 -87q-134 0 -222 86.5t-88 212.5zM219 1100q0 -66 42.5 -111t105.5 -45q64 0 105.5 45t41.5 113q0 66 -39.5 113t-109.5 47q-64 0 -105 -47.5t-41 -114.5z" />
    <glyph glyph-name="plusminus" unicode="&#xb1;" horiz-adv-x="1069" 
d="M53 154v170h963v-170h-963zM618 983h398v-168h-398v-397h-167v397h-398v168h398v397h167v-397z" />
    <glyph glyph-name="twosuperior" unicode="&#xb2;" horiz-adv-x="720" 
d="M31 1022l127 113q75 66 105.5 94t68.5 69.5t50.5 71t12.5 62.5q0 44 -32 71t-89 27q-93 0 -176 -57l-61 155q122 88 299 88q147 0 229 -70t82 -178q0 -36 -7.5 -68t-27 -63.5t-35.5 -54t-50.5 -54.5t-53.5 -48.5t-61 -51.5l-50 -41v-4h300v-178h-631v117z" />
    <glyph glyph-name="threesuperior" unicode="&#xb3;" horiz-adv-x="710" 
d="M295 895q-82 0 -157 16t-120 41l48 160q36 -20 92.5 -36.5t107.5 -16.5q63 0 104.5 26.5t41.5 67.5q0 48 -52 74t-127 28h-61v140h59q61 0 109.5 20.5t48.5 63.5q0 73 -108 73q-99 0 -185 -51l-45 150q47 28 124.5 46.5t162.5 18.5q142 0 218.5 -57t76.5 -146
q0 -64 -46 -111.5t-122 -70.5v-4q87 -9 143 -60.5t56 -127.5q0 -108 -101 -176t-268 -68z" />
    <glyph glyph-name="acute" unicode="&#xb4;" 
d="M332 1438h286l-249 -312h-213z" />
    <glyph glyph-name="uni00B5" unicode="&#xb5;" horiz-adv-x="1198" 
d="M154 -406q-29 71 -29 363v1044h311v-559q0 -103 38.5 -159t113.5 -56q74 0 123 51.5t49 124.5v598h311v-675q0 -63 20 -88t64 -27l-16 -215q-40 -19 -113 -19q-177 0 -225 160h-6q-28 -61 -93 -106t-155 -45q-88 0 -141 59v-86q0 -258 22 -365h-274z" />
    <glyph glyph-name="paragraph" unicode="&#xb6;" horiz-adv-x="1009" 
d="M956 1536v-1536h-170q0 697 2 1366h-167v-1366h-168v727q-166 3 -283 121t-117 285q0 166 117 283.5t283 119.5h108h60h196h139z" />
    <glyph glyph-name="periodcentered" unicode="&#xb7;" horiz-adv-x="532" 
d="M84 530q0 85 51 138t133 53q80 0 131 -53t52 -138q0 -83 -51.5 -135.5t-135.5 -52.5q-78 0 -129 53t-51 135z" />
    <glyph glyph-name="cedilla" unicode="&#xb8;" 
d="M258 -418q-97 0 -164 41l41 115q58 -33 113 -33q30 0 50.5 13t20.5 40q0 63 -159 74l88 176h168l-56 -98q61 -8 104.5 -49t43.5 -101q0 -93 -70.5 -135.5t-179.5 -42.5z" />
    <glyph glyph-name="onesuperior" unicode="&#xb9;" 
d="M481 907h-239v602h-2l-164 -71l-31 168l227 100h209v-799z" />
    <glyph glyph-name="ordmasculine" unicode="&#xba;" horiz-adv-x="790" 
d="M49 866q0 155 97 249.5t253 94.5q155 0 248.5 -93t93.5 -238q0 -164 -102.5 -254t-247.5 -90q-146 0 -244 91t-98 240zM268 870q0 -78 34.5 -131t92.5 -53q59 0 92 51.5t33 136.5q0 72 -34.5 128.5t-94.5 56.5q-42 0 -71 -31t-40.5 -72t-11.5 -86z" />
    <glyph glyph-name="guillemotright" unicode="&#xbb;" horiz-adv-x="987" 
d="M457 713l121 -121l-121 -119l-283 -285l-121 119l285 285l-281 280l121 119zM813 713l121 -121l-404 -404l-120 119l284 285l-280 280l121 119z" />
    <glyph glyph-name="onequarter" unicode="&#xbc;" horiz-adv-x="1701" 
d="M1300 184h-401v129l350 494h273v-471h108v-152h-108v-184h-222v184zM354 -23l756 1377h170l-756 -1377h-170zM74 1245l227 98h209v-798h-240v604h-2l-164 -72zM1231 506l-115 -168l4 -2h180v151q0 30 4 82.5t5 69.5h-4q-9 -16 -24 -45t-26.5 -50t-23.5 -38z" />
    <glyph glyph-name="onehalf" unicode="&#xbd;" horiz-adv-x="1701" 
d="M993 115l127 114q140 125 176 164q62 71 62 131q0 44 -32 71.5t-89 27.5q-92 0 -176 -58l-62 156q122 88 299 88q147 0 229.5 -70t82.5 -178q0 -42 -13.5 -82t-33 -71.5t-53.5 -67t-63 -60t-73 -59.5l-49 -39v-4h299v-178h-631v115zM307 -23l754 1377h170l-754 -1377
h-170zM80 1077l-31 168l227 98h209v-798h-239v604h-2z" />
    <glyph glyph-name="threequarters" unicode="&#xbe;" horiz-adv-x="1701" 
d="M920 313l348 494h272v-471h109v-152h-109v-184h-221v184h-399v129zM332 535q-82 0 -157 16t-120 41l47 160q36 -20 93 -37t108 -17q64 0 105 27t41 68q0 48 -52 74t-127 26h-61v139h59q61 0 109.5 20.5t48.5 63.5q0 34 -27 54t-82 20q-98 0 -184 -51l-45 149
q47 28 124.5 47t162.5 19q142 0 218.5 -57t76.5 -146q0 -64 -46 -110.5t-122 -69.5v-4q86 -9 142 -60.5t56 -128.5q0 -108 -100.5 -175.5t-267.5 -67.5zM422 -23l752 1377h169l-753 -1377h-168zM1249 506l-114 -168l4 -2h180v151q0 31 3.5 84t4.5 68h-4q-9 -16 -24.5 -45.5
t-27 -50t-22.5 -37.5z" />
    <glyph glyph-name="questiondown" unicode="&#xbf;" horiz-adv-x="1167" 
d="M580 1415q-12 36 4.5 70.5t52.5 46.5q36 14 70.5 -2.5t46.5 -52.5q14 -35 -2.5 -70.5t-53.5 -48.5q-36 -12 -70.5 4.5t-47.5 52.5zM53 248v227q0 98 69.5 168.5t166.5 75.5h176q50 3 84.5 39.5t34.5 85.5v450h168v-499q0 -98 -69.5 -169.5t-166.5 -74.5h-176
q-50 -3 -84.5 -39.5t-34.5 -85.5l2 -143q0 -51 35.5 -81t89.5 -30h471q54 0 89.5 28.5t35.5 78.5v24h168l2 -55q0 -100 -72.5 -172t-173.5 -74h-569q-100 0 -172.5 72.5t-73.5 173.5z" />
    <glyph glyph-name="Agrave" unicode="&#xc0;" horiz-adv-x="1499" 
d="M678 1638l-90 252h143l92 -252h-145zM1423 168h23v-168q-104 0 -173 31.5t-99 118.5l-140 438l-569 2l-135 -432q-18 -53 -44 -85.5t-64.5 -48t-74.5 -20t-94 -4.5v168h23q44 0 64 13.5t30 41.5l422 1313h315l416 -1298q8 -25 16 -37.5t29 -22.5t55 -10zM518 758h557v12
l-110 35l-215 670z" />
    <glyph glyph-name="Aacute" unicode="&#xc1;" horiz-adv-x="1499" 
d="M920 1890l-91 -252h-145l90 252h146zM1423 168h23v-168q-104 0 -173 31.5t-99 118.5l-140 438l-569 2l-135 -432q-18 -53 -44 -85.5t-64.5 -48t-74.5 -20t-94 -4.5v168h23q44 0 64 13.5t30 41.5l422 1313h315l416 -1298q8 -25 16 -37.5t29 -22.5t55 -10zM518 758h557v12
l-110 35l-215 670z" />
    <glyph glyph-name="Acircumflex" unicode="&#xc2;" horiz-adv-x="1499" 
d="M881 1890l92 -254h-144l-79 217l-80 -217h-146l94 254h263zM1423 168h23v-168q-104 0 -173 31.5t-99 118.5l-140 438l-569 2l-135 -432q-18 -53 -44 -85.5t-64.5 -48t-74.5 -20t-94 -4.5v168h23q44 0 64 13.5t30 41.5l422 1313h315l416 -1298q8 -25 16 -37.5t29 -22.5
t55 -10zM518 758h557v12l-110 35l-215 670z" />
    <glyph glyph-name="Atilde" unicode="&#xc3;" horiz-adv-x="1343" 
d="M358 0h-321l420 1380h409l428 -1380h-336l-106 354h-395zM391 1464q-3 126 40 193t118 67q65 0 131 -41q66 -38 90 -38q26 0 37.5 18t17.5 70h140q3 -134 -37.5 -195t-122.5 -61q-61 0 -133 39q-7 4 -20 11.5t-19 10.5t-15.5 7t-17.5 5.5t-16 1.5q-43 0 -49 -88h-144z
M584 881l-82 -293h305l-86 293q-26 84 -70 266h-4q-5 -19 -27.5 -119t-35.5 -147z" />
    <glyph glyph-name="Adieresis" unicode="&#xc4;" horiz-adv-x="1499" 
d="M655 1765q12 -37 -4.5 -73.5t-52.5 -49.5q-37 -12 -73.5 5t-49.5 53q-12 37 4.5 73.5t52.5 49.5q38 12 74 -4.5t49 -53.5zM1024 1765q12 -37 -4.5 -73.5t-54.5 -49.5q-37 -12 -72.5 4.5t-48.5 53.5t3.5 73t53.5 50q37 12 73.5 -5t49.5 -53zM1423 168h23v-168
q-104 0 -173 31.5t-99 118.5l-140 438l-569 2l-135 -432q-18 -53 -44 -85.5t-64.5 -48t-74.5 -20t-94 -4.5v168h23q44 0 64 13.5t30 41.5l422 1313h315l416 -1298q8 -25 16 -37.5t29 -22.5t55 -10zM518 758h557v12l-110 35l-215 670z" />
    <glyph glyph-name="Aring" unicode="&#xc5;" horiz-adv-x="1499" 
d="M770 2019q70 0 116 -47.5t46 -118.5v-24v-25q0 -72 -47.5 -119t-118.5 -47h-37q-71 0 -117.5 47.5t-46.5 118.5v25v24q0 70 48.5 118t119.5 48h37zM838 1802v27v24q0 71 -88 74q-88 -3 -88 -74v-24v-27q0 -70 88 -73q88 3 88 73zM1423 168h23v-168q-104 0 -173 31.5
t-99 118.5l-140 438l-569 2l-135 -432q-18 -53 -44 -85.5t-64.5 -48t-74.5 -20t-94 -4.5v168h23q44 0 64 13.5t30 41.5l422 1313h315l416 -1298q8 -25 16 -37.5t29 -22.5t55 -10zM518 758h557v12l-110 35l-215 670z" />
    <glyph glyph-name="AE" unicode="&#xc6;" horiz-adv-x="1777" 
d="M6 0l588 1380h1051v-256h-568l37 -293h522v-253h-483l43 -322h524l-2 -256h-790l-49 377h-402l-151 -377h-320zM569 627h275l-41 334q-14 109 -25 200h-6q-12 -36 -36.5 -105.5t-33.5 -97.5z" />
    <glyph glyph-name="Ccedilla" unicode="&#xc7;" horiz-adv-x="1222" 
d="M72 670q0 138 38 256.5t106.5 205t162.5 147.5t207 91.5t239 30.5q114 0 204 -18t134 -44l-63 -245q-115 51 -260 51q-127 0 -224.5 -49t-157 -154t-59.5 -254q0 -208 117.5 -329t323.5 -121q157 0 262 45l45 -246q-115 -54 -324 -57l-39 -70q64 -15 107 -57.5t43 -110.5
q0 -67 -38 -111t-90 -60.5t-116 -16.5q-110 0 -176 38l41 127q54 -28 115 -28q73 0 73 51q0 31 -37.5 49t-123.5 27l80 170q-190 25 -324.5 119.5t-200 238t-65.5 324.5z" />
    <glyph glyph-name="Egrave" unicode="&#xc8;" horiz-adv-x="1165" 
d="M479 1638l-90 252h146l88 -252h-144zM125 182v-12h987v-170h-1059v1536h1059v-170l-889 2v-364l-98 -31v-12h987v-170l-889 2l-2 -582z" />
    <glyph glyph-name="Eacute" unicode="&#xc9;" horiz-adv-x="1165" 
d="M702 1890l-90 -252h-145l90 252h145zM125 182v-12h987v-170h-1059v1536h1059v-170l-889 2v-364l-98 -31v-12h987v-170l-889 2l-2 -582z" />
    <glyph glyph-name="Ecircumflex" unicode="&#xca;" horiz-adv-x="1165" 
d="M715 1890l90 -252h-146l-75 215l-78 -215h-146l91 252h264zM125 182v-12h987v-170h-1059v1536h1059v-170l-889 2v-364l-98 -31v-12h987v-170l-889 2l-2 -582z" />
    <glyph glyph-name="Edieresis" unicode="&#xcb;" horiz-adv-x="1165" 
d="M487 1765q14 -37 -2.5 -72.5t-54.5 -47.5q-37 -13 -72 3.5t-49 53.5q-13 37 4 73t54 48q37 13 72.5 -4t47.5 -54zM856 1765q14 -37 -3 -72.5t-54 -47.5q-37 -14 -73 3t-48 54q-14 37 3 73t54 48q37 13 72 -4t49 -54zM125 182v-12h987v-170h-1059v1536h1059v-170l-889 2
v-364l-98 -31v-12h987v-170l-889 2l-2 -582z" />
    <glyph glyph-name="Igrave" unicode="&#xcc;" horiz-adv-x="276" 
d="M68 1636l-93 254h144l92 -254h-143zM221 0h-168v1536h170z" />
    <glyph glyph-name="Iacute" unicode="&#xcd;" horiz-adv-x="354" 
d="M301 1890l-90 -252h-143l90 252h143zM221 0h-168v1536h170z" />
    <glyph glyph-name="Icircumflex" unicode="&#xce;" horiz-adv-x="550" 
d="M408 1888l90 -254h-146l-76 217l-77 -217h-146l90 254h265zM358 0h-170v1536h170v-1536z" />
    <glyph glyph-name="Idieresis" unicode="&#xcf;" horiz-adv-x="665" 
d="M238 1765q13 -38 -4 -73.5t-54 -49.5q-37 -13 -73 4t-48 54q-13 37 4 73t54 50q37 12 73 -5t48 -53zM606 1765q13 -38 -3.5 -73.5t-53.5 -49.5q-37 -13 -73 4t-50 54q-12 37 4.5 73.5t52.5 49.5q38 12 74 -4.5t49 -53.5zM416 0h-168v1536h170z" />
    <glyph glyph-name="Eth" unicode="&#xd0;" horiz-adv-x="1441" 
d="M6 582v243h146v541q198 31 419 31q197 0 332.5 -35t233.5 -111q111 -82 172 -215t61 -311q0 -160 -42.5 -286t-118 -211t-184.5 -141t-237.5 -80.5t-281.5 -24.5q-183 0 -354 18v582h-146zM463 825h274v-243h-274v-351q27 -6 108 -6q222 0 345.5 121.5t123.5 368.5
q0 221 -114 331.5t-322 110.5q-87 0 -141 -12v-320z" />
    <glyph glyph-name="Ntilde" unicode="&#xd1;" horiz-adv-x="1413" 
d="M135 0v1380h365l286 -506q122 -216 226 -473h4q-25 253 -25 578v401h287v-1380h-328l-295 532q-149 267 -239 488h-8q14 -258 14 -604v-416h-287zM424 1464q-3 126 40 193t118 67q63 0 133 -41q5 -3 19 -10.5t20 -11t16.5 -8t18.5 -6.5t16 -2q26 0 37.5 18t17.5 70h139
q3 -135 -37 -195.5t-124 -60.5q-61 0 -133 39q-6 3 -17 9.5t-16.5 9t-14 6.5t-14 6t-13 3.5t-14.5 1.5q-43 0 -49 -88h-143z" />
    <glyph glyph-name="Ograve" unicode="&#xd2;" horiz-adv-x="1286" 
d="M592 1638l-90 252h145l90 -252h-145zM733 1536q217 0 358.5 -140t141.5 -356v-518q0 -143 -64 -262.5t-179 -189.5t-257 -70h-158q-106 0 -203 41t-167 111t-111 167t-41 203v518q0 214 151.5 355t370.5 141h158zM1065 995q0 178 -99 275.5t-278 97.5h-67
q-182 0 -291 -98.5t-109 -274.5v-426q0 -179 111 -290t289 -111h67q176 0 276.5 110t100.5 291v426z" />
    <glyph glyph-name="Oacute" unicode="&#xd3;" horiz-adv-x="1286" 
d="M575 0q-106 0 -202.5 41.5t-166.5 111.5t-111.5 166.5t-41.5 202.5v518q0 141 70.5 255.5t189.5 177.5t262 63h158q217 0 358.5 -140t141.5 -356v-518q0 -142 -64 -261.5t-179.5 -190t-256.5 -70.5h-158zM621 1368q-182 0 -291 -98.5t-109 -274.5v-426q0 -179 111 -290
t289 -111h67q176 0 276.5 110t100.5 291v426q0 178 -99 275.5t-278 97.5h-67zM575 1638l91 252h149l-90 -252h-150z" />
    <glyph glyph-name="Ocircumflex" unicode="&#xd4;" horiz-adv-x="1286" 
d="M774 1890l92 -252h-145l-78 215l-78 -215h-145l92 252h262zM575 1536h158q217 0 358.5 -140t141.5 -356v-518q0 -143 -64 -262.5t-179 -189.5t-257 -70h-158q-106 0 -203 41t-167 111t-111 167t-41 203v518q0 214 151.5 355t370.5 141zM1065 569v426q0 178 -99 275.5
t-278 97.5h-67q-182 0 -291 -98.5t-109 -274.5v-426q0 -179 111 -290t289 -111h67q176 0 276.5 110t100.5 291z" />
    <glyph glyph-name="Otilde" unicode="&#xd5;" horiz-adv-x="1468" 
d="M72 682q0 206 82 370t236 258.5t353 94.5q155 0 281 -55.5t207 -151t124.5 -222t43.5 -271.5q0 -338 -185 -533t-493 -195q-199 0 -348 94.5t-225 253t-76 357.5zM737 1157q-156 0 -246 -131.5t-90 -337.5q0 -207 90.5 -335t245.5 -128q103 0 179 61.5t114.5 167
t38.5 240.5q0 127 -37.5 231t-114 168t-180.5 64zM449 1464q-3 125 39.5 191.5t117.5 66.5q59 0 131 -39q66 -38 90 -38q27 0 38.5 18t17.5 70h139q3 -134 -37.5 -195t-122.5 -61q-59 0 -133 36q-10 5 -24.5 13t-23 12.5t-19.5 8t-21 3.5q-43 0 -49 -86h-143z" />
    <glyph glyph-name="Odieresis" unicode="&#xd6;" horiz-adv-x="1286" 
d="M535 1765q14 -37 -3 -72.5t-55 -47.5q-37 -14 -72.5 2.5t-48.5 54.5q-13 37 4 72t54 49q37 13 73 -4t48 -54zM903 1765q14 -37 -3 -72.5t-54 -47.5q-37 -14 -73 2.5t-48 54.5q-13 37 3.5 72t53.5 49q37 13 72 -4t49 -54zM575 1536h158q217 0 358.5 -140t141.5 -356v-518
q0 -143 -64 -262.5t-179 -189.5t-257 -70h-158q-106 0 -203 41t-167 111t-111 167t-41 203v518q0 214 151.5 355t370.5 141zM1065 569v426q0 178 -99 275.5t-278 97.5h-67q-182 0 -291 -98.5t-109 -274.5v-426q0 -179 111 -290t289 -111h67q176 0 276.5 110t100.5 291z" />
    <glyph glyph-name="multiply" unicode="&#xd7;" horiz-adv-x="1163" 
d="M53 1034l133 135l396 -403l395 403l133 -135l-393 -403l393 -402l-135 -137l-393 402l-394 -402l-135 137l393 402z" />
    <glyph glyph-name="Oslash" unicode="&#xd8;" horiz-adv-x="1447" 
d="M1395 1536l-168 -225q73 -118 73 -271v-518q0 -143 -64 -262.5t-178.5 -189.5t-256.5 -70h-156q-174 0 -313 104l-76 -104h-203l164 221q-96 140 -96 301v518q0 141 70.5 255.5t190 177.5t263.5 63h156q187 0 317 -102l76 102h201zM291 569q0 -108 41 -192l680 913
q-96 78 -256 78h-68q-181 0 -289 -98.5t-108 -274.5v-426zM1135 569v426q0 86 -25 156l-672 -903q104 -80 250 -80h68q176 0 277.5 110t101.5 291z" />
    <glyph glyph-name="Ugrave" unicode="&#xd9;" horiz-adv-x="1286" 
d="M55 512l-2 1024h170v-969q2 -139 78.5 -249.5t204.5 -149.5q39 -8 84 -8q71 0 140 23.5t114 55t72.5 58t31.5 37.5v1202h168v-1262q-3 -106 90 -106q17 0 27 2v-170h-25q-44 0 -76 7.5t-62 27.5t-44 60t-10 100l49 170h-14l-74 -113q-65 -82 -120 -132.5t-133 -85
t-169 -34.5q-135 0 -251 71.5t-182.5 189.5t-66.5 251zM436 1890h146l90 -252h-146z" />
    <glyph glyph-name="Uacute" unicode="&#xda;" horiz-adv-x="1286" 
d="M719 1890l-90 -252h-146l90 252h146zM948 334v1202h168v-1262q-3 -119 117 -104v-170q-38 -1 -67.5 1.5t-60 14t-50 32.5t-31 58t-8.5 89l49 170h-14l-74 -113q-65 -82 -120 -132.5t-133 -85t-169 -34.5q-105 0 -205.5 49.5t-171.5 130.5q-123 145 -123 332l-2 1024h170
v-969q2 -139 78.5 -249.5t204.5 -149.5q74 -15 140 -5t120 33.5t94 53t62.5 52t25.5 32.5zM1116 293v2v-2z" />
    <glyph glyph-name="Ucircumflex" unicode="&#xdb;" horiz-adv-x="1286" 
d="M688 1890l90 -252h-143l-78 215l-78 -215h-143l90 252h262zM948 334v1202h168v-1262q-3 -119 117 -104v-170q-38 -1 -67.5 1.5t-60 14t-50 32.5t-31 58t-8.5 89l49 170h-14l-74 -113q-65 -82 -120 -132.5t-133 -85t-169 -34.5q-105 0 -205.5 49.5t-171.5 130.5
q-123 145 -123 332l-2 1024h170v-969q2 -139 78.5 -249.5t204.5 -149.5q74 -15 140 -5t120 33.5t94 53t62.5 52t25.5 32.5zM1116 293v2v-2z" />
    <glyph glyph-name="Udieresis" unicode="&#xdc;" horiz-adv-x="1286" 
d="M489 1763q12 -37 -4.5 -72.5t-52.5 -48.5q-38 -13 -73.5 4t-49.5 54q-13 37 4 73t54 48q37 13 72.5 -4t49.5 -54zM858 1765q13 -37 -3.5 -71.5t-53.5 -48.5t-73 3t-48 54q-14 37 3 73t54 48q37 13 73 -4t48 -54zM948 334v1202h168v-1262q-3 -119 117 -104v-170
q-38 -1 -67.5 1.5t-60 14t-50 32.5t-31 58t-8.5 89l49 170h-14l-74 -113q-65 -82 -120 -132.5t-133 -85t-169 -34.5q-105 0 -205.5 49.5t-171.5 130.5q-123 145 -123 332l-2 1024h170v-969q2 -139 78.5 -249.5t204.5 -149.5q74 -15 140 -5t120 33.5t94 53t62.5 52t25.5 32.5
zM1116 293v2v-2z" />
    <glyph glyph-name="Yacute" unicode="&#xdd;" horiz-adv-x="1345" 
d="M1087 1534h205l-534 -791v-743h-170l2 741l-537 793h205l416 -614zM836 1890l-91 -252h-149l90 252h150z" />
    <glyph glyph-name="Thorn" unicode="&#xde;" horiz-adv-x="1187" 
d="M135 1380h307v-247q78 8 170 8q248 0 379 -111q133 -114 133 -299q0 -123 -42.5 -215.5t-117.5 -146.5t-170.5 -80.5t-209.5 -26.5q-70 0 -142 10v-272h-307v1380zM442 893v-377q46 -12 129 -12q122 0 184 55t62 148q0 95 -62 145.5t-177 50.5q-94 0 -136 -10z" />
    <glyph glyph-name="germandbls" unicode="&#xdf;" horiz-adv-x="1228" 
d="M436 0h-311v883q0 320 158 465q142 129 368 129q190 0 315.5 -104.5t125.5 -274.5q0 -103 -48 -168q-59 -28 -88.5 -66t-29.5 -78q0 -34 16 -64.5t53 -70.5q33 -35 45 -48t40.5 -50.5t41 -65t24 -70t11.5 -87.5q0 -160 -109.5 -256.5t-302.5 -96.5q-139 0 -221 33l39 230
q60 -29 144 -29q64 0 100.5 29t36.5 75q0 36 -17.5 68t-56.5 74q-75 79 -100 117q-58 84 -58 174q0 78 43 144.5t123 108.5q15 35 15 74q0 71 -44 117.5t-116 46.5q-197 0 -197 -330v-909z" />
    <glyph glyph-name="agrave" unicode="&#xe0;" horiz-adv-x="1075" 
d="M397 1065l-90 252h146l90 -252h-146zM975 168h47v-166h-121q-55 0 -98 32.5t-58 84.5l66 284h-14l-78 -139q-25 -44 -54.5 -83.5t-69.5 -79.5t-91 -66t-105 -31q-175 -19 -266 62q-71 65 -80 161v103q0 101 72.5 173t173.5 72h440v66q0 67 -35.5 110.5t-97.5 43.5h-237
q-28 0 -46 -1.5t-40 -9t-34.5 -21.5t-21 -39.5t-8.5 -61.5h-166v55q0 101 72.5 173.5t173.5 72.5h360q101 0 173.5 -72.5t72.5 -173.5v-479q0 -29 20.5 -49.5t49.5 -20.5zM739 358v52h-422q-38 0 -62.5 -22.5t-32 -55.5t-4 -69t17.5 -64q25 -49 77.5 -66.5t112.5 -7.5
q173 47 313 233z" />
    <glyph glyph-name="aacute" unicode="&#xe1;" horiz-adv-x="1075" 
d="M975 168h47v-166h-121q-55 0 -98 32.5t-58 84.5l66 284h-14l-78 -139q-25 -44 -54.5 -83.5t-69.5 -79.5t-91 -66t-105 -31q-175 -19 -266 62q-71 65 -80 161v103q0 101 72.5 173t173.5 72h440v66q0 67 -35.5 110.5t-97.5 43.5h-237q-28 0 -46 -1.5t-40 -9t-34.5 -21.5
t-21 -39.5t-8.5 -61.5h-166v55q0 101 72.5 173.5t173.5 72.5h360q101 0 173.5 -72.5t72.5 -173.5v-479q0 -29 20.5 -49.5t49.5 -20.5zM739 358v52h-422q-38 0 -62.5 -22.5t-32 -55.5t-4 -69t17.5 -64q25 -49 77.5 -66.5t112.5 -7.5q173 47 313 233zM666 1319l-93 -254h-147
l92 254h148z" />
    <glyph glyph-name="acircumflex" unicode="&#xe2;" horiz-adv-x="1075" 
d="M715 1065l-90 252h-263l-90 -252h144l78 215l77 -215h144zM975 168h47v-166h-121q-55 0 -98 32.5t-58 84.5l66 284h-14l-78 -139q-25 -44 -54.5 -83.5t-69.5 -79.5t-91 -66t-105 -31q-175 -19 -266 62q-71 65 -80 161v103q0 101 72.5 173t173.5 72h440v66
q0 67 -35.5 110.5t-97.5 43.5h-237q-28 0 -46 -1.5t-40 -9t-34.5 -21.5t-21 -39.5t-8.5 -61.5h-166v55q0 101 72.5 173.5t173.5 72.5h360q101 0 173.5 -72.5t72.5 -173.5v-479q0 -29 20.5 -49.5t49.5 -20.5zM739 358v52h-422q-38 0 -62.5 -22.5t-32 -55.5t-4 -69t17.5 -64
q25 -49 77.5 -66.5t112.5 -7.5q173 47 313 233z" />
    <glyph glyph-name="atilde" unicode="&#xe3;" horiz-adv-x="1081" 
d="M383 -23q-146 0 -235 91t-89 217q0 190 157 286.5t431 96.5v12q0 53 -39.5 92t-142.5 39q-73 0 -149 -22t-128 -54l-57 201q162 90 389 90q121 0 208.5 -33.5t136.5 -95t71 -136.5t22 -169v-350q0 -164 17 -242h-281l-18 100h-6q-101 -123 -287 -123zM231 1143
q-4 126 42 197t126 71q49 0 133 -41q10 -5 29.5 -16.5t32.5 -17t24 -5.5q26 0 38 19t16 71h143q8 -262 -168 -262q-12 0 -23 1t-22.5 4t-19.5 5.5t-20.5 7.5t-18 7.5t-19.5 9t-18 8.5q-9 5 -23.5 13.5t-20 11t-15 5.5t-19.5 3q-43 0 -49 -92h-148zM657 473q-290 0 -290 -158
q0 -58 33.5 -88t88.5 -30q70 0 119 49.5t49 118.5v108z" />
    <glyph glyph-name="adieresis" unicode="&#xe4;" horiz-adv-x="1075" 
d="M393 1192q12 -37 -4.5 -73.5t-52.5 -49.5q-38 -12 -74 4t-49 53q-13 38 3.5 73.5t53.5 49.5q37 13 73 -3.5t50 -53.5zM758 1192q-12 37 -48 54t-73 3t-53.5 -49.5t-3.5 -73.5q12 -36 47.5 -52.5t72.5 -4.5q37 14 54 50t4 73zM975 168h47v-166h-121q-55 0 -98 32.5
t-58 84.5l66 284h-14l-78 -139q-25 -44 -54.5 -83.5t-69.5 -79.5t-91 -66t-105 -31q-175 -19 -266 62q-71 65 -80 161v103q0 101 72.5 173t173.5 72h440v66q0 67 -35.5 110.5t-97.5 43.5h-237q-28 0 -46 -1.5t-40 -9t-34.5 -21.5t-21 -39.5t-8.5 -61.5h-166v55
q0 101 72.5 173.5t173.5 72.5h360q101 0 173.5 -72.5t72.5 -173.5v-479q0 -29 20.5 -49.5t49.5 -20.5zM739 358v52h-422q-38 0 -62.5 -22.5t-32 -55.5t-4 -69t17.5 -64q25 -49 77.5 -66.5t112.5 -7.5q173 47 313 233z" />
    <glyph glyph-name="aring" unicode="&#xe5;" horiz-adv-x="1075" 
d="M508 1446q70 0 116 -47.5t46 -118.5v-49q0 -71 -48 -118.5t-118 -47.5h-37q-71 0 -117.5 47.5t-46.5 118.5v49q0 70 48.5 118t119.5 48h37zM575 1229v51q0 71 -88 74q-88 -3 -88 -74v-51q0 -71 88 -74q88 3 88 74zM975 168h47v-166h-121q-55 0 -98 32.5t-58 84.5l66 284
h-14l-78 -139q-25 -44 -54.5 -83.5t-69.5 -79.5t-91 -66t-105 -31q-175 -19 -266 62q-71 65 -80 161v103q0 101 72.5 173t173.5 72h440v66q0 67 -35.5 110.5t-97.5 43.5h-237q-28 0 -46 -1.5t-40 -9t-34.5 -21.5t-21 -39.5t-8.5 -61.5h-166v55q0 101 72.5 173.5t173.5 72.5
h360q101 0 173.5 -72.5t72.5 -173.5v-479q0 -29 20.5 -49.5t49.5 -20.5zM739 358v52h-422q-38 0 -62.5 -22.5t-32 -55.5t-4 -69t17.5 -64q25 -49 77.5 -66.5t112.5 -7.5q173 47 313 233z" />
    <glyph glyph-name="ae" unicode="&#xe6;" horiz-adv-x="1644" 
d="M406 -23q-159 0 -253 90.5t-94 223.5q0 180 159.5 275.5t432.5 95.5v26q0 14 -8 31.5t-27 39t-60 36t-97 14.5q-71 0 -142.5 -22.5t-123.5 -53.5l-62 197q170 94 354 94q236 0 330 -162h6q124 162 342 162q107 0 190 -43t132 -115t73.5 -158t24.5 -180q0 -12 -8 -112
h-633q3 -95 77 -151t193 -56q156 0 281 53l43 -209q-148 -76 -369 -76q-126 0 -228.5 47t-154.5 132h-6q-132 -179 -372 -179zM659 469h-12q-130 0 -206 -37.5t-76 -118.5q0 -56 36 -86t91 -30q56 0 97.5 29.5t61.5 74.5q8 24 8 64v104zM940 627h356q1 28 -6 58t-24 62
t-53.5 53t-86.5 21q-88 0 -136 -63.5t-50 -130.5z" />
    <glyph glyph-name="ccedilla" unicode="&#xe7;" horiz-adv-x="923" 
d="M487 -10q-196 29 -307.5 162.5t-111.5 339.5q0 111 37.5 207t108.5 168.5t181 114.5t246 42q135 0 238 -39l-50 -231q-69 30 -174 30q-122 0 -196 -78t-72 -202q0 -133 77.5 -208t194.5 -75q103 0 181 33l37 -229q-76 -39 -230 -45l-39 -72q65 -15 107.5 -56.5
t42.5 -107.5q0 -68 -38 -112.5t-90.5 -61t-117.5 -16.5q-106 0 -172 38l39 127q54 -28 115 -28q73 0 73 51q0 31 -37.5 49t-123.5 27z" />
    <glyph glyph-name="egrave" unicode="&#xe8;" horiz-adv-x="1017" 
d="M238 698l-43 66h-15l43 -180v-295q1 -51 37.5 -86t87.5 -35h322q52 0 88.5 37t36.5 88v65h170v-82q0 -115 -81.5 -195.5t-195.5 -80.5h-364q-117 0 -192.5 68t-78.5 188v444q0 114 79.5 187.5t195.5 73.5h360q114 0 195.5 -81t81.5 -196v-61q-6 -90 -63.5 -160
t-143.5 -92q-74 -17 -178 -6q-76 5 -160 55q-35 22 -80.5 91.5t-73.5 128.5zM348 793q-54 0 -90 -39q196 -224 395 -224h17q51 0 88 37t37 88v17q-2 50 -38 85.5t-87 35.5h-322zM420 1065l-90 252h145l90 -252h-145z" />
    <glyph glyph-name="eacute" unicode="&#xe9;" horiz-adv-x="1017" 
d="M53 258v447q0 112 79.5 185t195.5 73h360q114 0 195.5 -81t81.5 -196v-61q-6 -88 -63.5 -158t-143.5 -92q-41 -10 -113 -10q-45 0 -65 2q-79 6 -160 57q-35 21 -80.5 90t-73.5 128l-28 58l-43 68h-15l43 -182v-295q1 -51 37.5 -86t87.5 -35l322 2q52 0 88.5 36t36.5 89
v63h170v-81q0 -114 -81.5 -195.5t-195.5 -81.5h-364q-117 0 -192.5 68.5t-78.5 187.5zM258 758q31 -37 67.5 -70.5t88 -70.5t114 -59.5t125.5 -22.5h17q53 0 89 36t36 88v15q-1 51 -37.5 86t-87.5 35h-322q-53 0 -90 -37zM410 1065l90 254h149l-92 -254h-147z" />
    <glyph glyph-name="ecircumflex" unicode="&#xea;" horiz-adv-x="1017" 
d="M238 698l-43 66h-15l43 -180v-295q1 -51 37.5 -86t87.5 -35h322q52 0 88.5 37t36.5 88v65h170v-84q0 -114 -81.5 -194t-195.5 -80h-364q-117 0 -192.5 67.5t-78.5 186.5v446q0 114 79.5 187.5t195.5 73.5h360q114 0 195.5 -81.5t81.5 -195.5v-63q-6 -88 -63.5 -158
t-143.5 -92q-74 -17 -178 -6q-76 5 -160 55q-35 21 -80.5 90.5t-73.5 128.5zM348 791q-56 0 -90 -37q196 -224 395 -224h17q51 0 88 37t37 88v17q-2 50 -38 84.5t-87 34.5h-322zM715 1065l-90 252h-263l-90 -252h144l78 215l77 -215h144z" />
    <glyph glyph-name="edieresis" unicode="&#xeb;" horiz-adv-x="1017" 
d="M399 1192q14 -37 -2.5 -73.5t-54.5 -49.5q-37 -12 -72.5 4.5t-48.5 52.5q-13 38 4 73.5t54 49.5t72.5 -3t47.5 -54zM768 1192q13 -37 -3.5 -73t-53.5 -50q-37 -12 -73 4.5t-48 52.5q-14 38 2.5 74t54.5 49q37 13 72 -3.5t49 -53.5zM238 698l-43 66h-15l43 -180v-295
q1 -51 37.5 -86t87.5 -35h322q52 0 88.5 37t36.5 88v65h170v-84q0 -114 -81.5 -194t-195.5 -80h-364q-117 0 -192.5 67.5t-78.5 186.5v446q0 114 79.5 187.5t195.5 73.5h360q114 0 195.5 -81.5t81.5 -195.5v-63q-6 -88 -63.5 -158t-143.5 -92q-74 -17 -178 -6q-76 5 -160 55
q-35 21 -80.5 90.5t-73.5 128.5zM670 791h-322q-56 0 -90 -37q196 -224 395 -224h17q51 0 88 37t37 88v17q-2 50 -38 84.5t-87 34.5z" />
    <glyph glyph-name="igrave" unicode="&#xec;" horiz-adv-x="471" 
d="M287 0q-66 4 -111 53t-45 115v793h172l-2 -725q0 -42 15.5 -55t54.5 -13h47v-168h-121h-10zM199 1317l90 -252h-146l-90 252h146z" />
    <glyph glyph-name="iacute" unicode="&#xed;" horiz-adv-x="393" 
d="M53 168v793h172l-2 -725q0 -42 15.5 -55t54.5 -13h47v-168h-121h-10q-66 4 -111 53t-45 115zM211 1065h-148l91 254h149z" />
    <glyph glyph-name="icircumflex" unicode="&#xee;" horiz-adv-x="550" 
d="M344 0q-66 4 -111 53t-45 115v793h172l-2 -725q0 -42 15.5 -55t54.5 -13h47v-168h-121h-10zM53 1065l92 252h261l92 -252h-144l-78 215l-77 -215h-146z" />
    <glyph glyph-name="idieresis" unicode="&#xef;" horiz-adv-x="665" 
d="M238 1190q13 -37 -4 -73t-54 -48q-37 -14 -73 3t-48 54q-13 37 4 73t54 48q37 14 73 -3t48 -54zM606 1190q14 -37 -3 -73t-54 -48q-37 -13 -73 3.5t-50 53.5q-12 37 4.5 73t52.5 48q38 13 73.5 -3.5t49.5 -53.5zM492 168h49v-168h-123h-8q-66 5 -112 53.5t-46 114.5
l2 793h170v-725q0 -42 15 -55t53 -13z" />
    <glyph glyph-name="eth" unicode="&#xf0;" horiz-adv-x="1175" 
d="M68 485q0 143 65 254.5t173 170.5t237 59q47 0 78.5 -8t66.5 -33l4 6q-78 105 -178 172l-295 -127l-55 123l215 96q-64 42 -191 98l134 174q173 -62 323 -161l283 121l61 -119l-215 -94q163 -131 248.5 -307t85.5 -384q0 -110 -29 -202t-78.5 -155.5t-116.5 -107
t-142 -64t-156 -20.5q-224 0 -371 139.5t-147 368.5zM389 487q0 -123 53 -204.5t148 -81.5q94 0 145 80.5t51 214.5q0 57 -7.5 102t-27 88.5t-60 67.5t-99.5 24q-55 0 -96.5 -27.5t-63.5 -72t-32.5 -92.5t-10.5 -99z" />
    <glyph glyph-name="ntilde" unicode="&#xf1;" horiz-adv-x="1200" 
d="M117 1001h270l14 -139h7q39 63 117.5 112.5t191.5 49.5q161 0 259.5 -109.5t98.5 -322.5v-592h-311v555q0 217 -158 217q-80 0 -125 -57t-45 -137v-578h-311v682q0 139 -8 319zM309 1141q-4 128 42 199t126 71q53 0 133 -41q9 -5 24.5 -13.5t24 -13t19.5 -8.5t20 -4
q26 0 38 19t16 71h143q8 -262 -168 -262q-12 0 -23 1t-22.5 4t-19.5 5.5t-20.5 7.5t-18 7.5t-19.5 9t-18 8.5q-8 4 -19.5 11t-17 9.5t-14 6t-15 5t-14.5 1.5q-43 0 -49 -94h-148z" />
    <glyph glyph-name="ograve" unicode="&#xf2;" horiz-adv-x="1017" 
d="M53 233v482q0 101 72.5 173.5t173.5 72.5h420q101 0 173.5 -72.5t72.5 -173.5v-469q0 -101 -72.5 -173.5t-173.5 -72.5h-420q-99 0 -172.5 68.5t-73.5 164.5zM219 664v-373q0 -127 133 -127h316q63 0 96 35t33 98v367q0 63 -33 97t-96 34h-316q-64 0 -98.5 -34t-34.5 -97
zM440 1065l-90 252h146l90 -252h-146z" />
    <glyph glyph-name="oacute" unicode="&#xf3;" horiz-adv-x="1017" 
d="M53 233v482q0 101 72.5 173.5t173.5 72.5h420q101 0 173.5 -72.5t72.5 -173.5v-469q0 -101 -72.5 -173.5t-173.5 -72.5h-420q-99 0 -172.5 68.5t-73.5 164.5zM219 664v-373q0 -127 133 -127h316q63 0 96 35t33 98v367q0 63 -33 97t-96 34h-316q-64 0 -98.5 -34t-34.5 -97
zM426 1065l92 254h148l-93 -254h-147z" />
    <glyph glyph-name="ocircumflex" unicode="&#xf4;" horiz-adv-x="1017" 
d="M53 233v482q0 101 72.5 173.5t173.5 72.5h420q101 0 173.5 -72.5t72.5 -173.5v-469q0 -101 -72.5 -173.5t-173.5 -72.5h-420q-99 0 -172.5 68.5t-73.5 164.5zM352 795q-64 0 -98.5 -34t-34.5 -97v-373q0 -127 133 -127h316q63 0 96 35t33 98v367q0 63 -33 97t-96 34h-316
zM383 1317h262l90 -252h-143l-78 215l-78 -215h-143z" />
    <glyph glyph-name="otilde" unicode="&#xf5;" horiz-adv-x="1181" 
d="M68 494q0 244 146 388t390 144q228 0 369 -143t141 -371q0 -133 -44.5 -237.5t-119.5 -168t-168 -96.5t-196 -33q-226 0 -372 140t-146 377zM389 502q0 -133 54 -217t151 -84q92 0 145.5 83t53.5 220q0 78 -19.5 143.5t-66 110.5t-113.5 45q-70 0 -118 -46t-67.5 -111.5
t-19.5 -143.5zM299 1143q-4 126 42 197t126 71q63 0 133 -41q8 -4 23.5 -13t23.5 -13.5t19 -8.5t20 -4q25 0 37 18.5t16 71.5h144q8 -262 -168 -262q-9 0 -18 0.5t-18.5 2.5t-15.5 3.5t-16.5 5t-14.5 5t-15.5 6.5t-13.5 6t-14.5 7.5t-13.5 6.5q-11 5 -24 12.5t-20 11
t-16 6.5t-19 3q-44 0 -50 -92h-147z" />
    <glyph glyph-name="odieresis" unicode="&#xf6;" horiz-adv-x="1017" 
d="M414 1190q14 -37 -3 -73.5t-55 -49.5q-37 -12 -72 4t-48 53q-13 38 3.5 73.5t53.5 49.5t73 -3t48 -54zM782 1190q13 -37 -3.5 -73t-53.5 -50q-37 -12 -73 4.5t-48 52.5q-14 38 3 74t55 49q37 13 71.5 -3.5t48.5 -53.5zM299 961h420q101 0 173.5 -72.5t72.5 -173.5v-469
q0 -101 -72.5 -173.5t-173.5 -72.5h-420q-99 0 -172.5 68.5t-73.5 164.5v482q0 101 72.5 173.5t173.5 72.5zM797 297v367q0 63 -33.5 97t-97.5 34h-316q-63 0 -97 -34t-34 -97v-373q0 -127 131 -127h316q64 0 97.5 34.5t33.5 98.5z" />
    <glyph glyph-name="divide" unicode="&#xf7;" horiz-adv-x="1069" 
d="M1016 711v-168h-963v168h963zM623 985q12 -36 -5 -71t-53 -48q-35 -12 -70.5 4.5t-48.5 51.5q-12 37 4.5 71.5t53.5 46.5q35 13 70 -3.5t49 -51.5zM623 330q12 -36 -5 -70.5t-53 -46.5q-35 -14 -70.5 2t-48.5 53q-12 36 5 71t53 48q36 12 71 -4.5t48 -52.5z" />
    <glyph glyph-name="oslash" unicode="&#xf8;" horiz-adv-x="1419" 
d="M1366 961l-209 -185q8 -27 8 -61v-469q0 -101 -72 -173.5t-173 -72.5h-420q-87 0 -160 57l-64 -57h-223l207 182q-6 24 -6 51v482q0 101 72.5 173.5t173.5 72.5h420q89 0 159 -60l66 60h221zM420 664v-340l520 454q-34 17 -74 17h-315q-63 0 -97 -34t-34 -97zM997 297
v338l-520 -457q28 -14 74 -14h315q64 0 97.5 34.5t33.5 98.5z" />
    <glyph glyph-name="ugrave" unicode="&#xf9;" horiz-adv-x="1132" 
d="M53 276v685h170v-666q0 -53 36.5 -89t88.5 -36h14q63 0 127.5 24t110.5 55t91.5 74t65.5 67t38 48v523h170v-752q0 -17 11 -29t28 -12h75v-168h-94q-78 0 -134 56t-56 134l49 211h-15l-47 -82q-89 -145 -133 -195q-88 -101 -210 -118q-30 -4 -64 -4q-45 0 -117 10
q-89 13 -147 90.5t-58 173.5zM350 1317h146l90 -252h-146z" />
    <glyph glyph-name="uacute" unicode="&#xfa;" horiz-adv-x="1132" 
d="M53 276v685h170v-666q0 -53 36.5 -90t88.5 -37h14q63 0 127.5 24.5t110 55.5t91.5 74.5t66 67.5t38 48v523h170v-752q0 -17 11 -29t28 -12h77v-168h-96q-78 0 -134 56t-56 134l47 209h-13l-47 -80q-26 -43 -38 -62.5t-35.5 -55t-37 -51.5t-36.5 -42.5t-41 -38.5
t-44.5 -28.5t-52 -23t-58 -12t-68.5 -5.5q-45 0 -113 10q-89 13 -147 91.5t-58 174.5zM430 1065l92 254h148l-92 -254h-148z" />
    <glyph glyph-name="ucircumflex" unicode="&#xfb;" horiz-adv-x="1132" 
d="M258 10q-89 15 -147 92.5t-58 173.5v685h170v-666q0 -53 36.5 -90t88.5 -37h14q63 0 127.5 24.5t110 55.5t91.5 74.5t66 67.5t38 48v523h170v-752q0 -17 11 -29t28 -12h77v-168h-96q-78 0 -134 56t-56 134l47 209h-13l-47 -80q-28 -47 -42.5 -70t-40 -60.5t-42.5 -56
t-42.5 -44.5t-49.5 -38.5t-54.5 -26t-65 -18.5t-74.5 -5q-45 0 -113 10zM362 1317h263l90 -252h-144l-77 215l-78 -215h-144z" />
    <glyph glyph-name="udieresis" unicode="&#xfc;" horiz-adv-x="1132" 
d="M414 1190q13 -37 -4 -73t-54 -50q-37 -12 -72.5 4.5t-47.5 52.5q-13 38 3.5 73.5t53.5 49.5q37 12 73 -4.5t48 -52.5zM782 1190q13 -37 -3.5 -73t-53.5 -50q-37 -12 -73.5 4.5t-49.5 52.5q-12 39 5 74.5t55 48.5q37 12 72 -4t48 -53zM965 944v-735q0 -17 11 -29t28 -12
h75v-168h-94q-78 0 -134 56t-56 134l47 209h-13l-47 -80q-89 -146 -136 -199q-91 -101 -219 -116q-73 -9 -169 6q-89 15 -147 92.5t-58 173.5v685h170v-668q0 -51 36.5 -88t88.5 -37h14q63 0 127.5 24.5t110 55.5t91.5 74.5t66 67.5t38 48v523h170v-17z" />
    <glyph glyph-name="yacute" unicode="&#xfd;" horiz-adv-x="1132" 
d="M795 1319l-93 -254h-145l92 254h146zM911 961h168v-1260q0 -114 -80 -194t-194 -80h-361q-114 0 -195 80t-81 194v27h170v-9q0 -53 36 -89t89 -36h321q53 0 90 36.5t37 88.5v467v4l47 207h-12l-47 -80q-15 -24 -43.5 -74.5t-43 -74t-44 -60.5t-56.5 -55t-68 -34.5
t-91 -20.5q-73 -6 -138.5 5t-122 40.5t-89.5 88t-33 140.5v480q0 15 -12 27t-27 12h-78v167h97q78 0 133 -55t55 -133v-479q0 -52 37 -88.5t88 -36.5h16q63 0 127.5 24t110 55t91 74.5t65.5 67t38 47.5v527z" />
    <glyph glyph-name="thorn" unicode="&#xfe;" horiz-adv-x="1224" 
d="M436 -406h-311v1790h311v-505h4q97 145 299 145q81 2 150 -27.5t117 -80t82.5 -117.5t50.5 -140.5t16 -148.5q0 -107 -27 -197t-71.5 -151t-103.5 -103.5t-121.5 -62t-126.5 -19.5q-89 0 -157 31.5t-108 85.5h-4v-500zM436 582v-172q0 -74 59 -133.5t132 -59.5
q97 0 155 78t58 211q0 119 -55.5 196.5t-149.5 77.5q-81 0 -140 -59t-59 -139z" />
    <glyph glyph-name="ydieresis" unicode="&#xff;" horiz-adv-x="1132" 
d="M532 1190q13 -37 -3.5 -73t-53.5 -50q-37 -12 -73 4.5t-48 52.5q-13 38 4 73.5t54 49.5t72.5 -3t47.5 -54zM901 1190q14 -37 -3 -73t-54 -48q-37 -13 -73 3.5t-50 53.5q-12 37 4.5 73t52.5 48q38 13 73.5 -3.5t49.5 -53.5zM911 961h168v-1260q0 -114 -80 -194t-194 -80
h-361q-114 0 -195 80t-81 194v27h170v-9q0 -53 36 -89t89 -36h321q53 0 90 36.5t37 88.5v467v2l47 209h-12l-47 -80q-15 -24 -43.5 -74.5t-43 -74t-44 -60.5t-56.5 -55t-68 -34.5t-91 -20.5q-73 -6 -138.5 5t-122 40.5t-89.5 88t-33 140.5v480q0 15 -12 27t-27 12h-78v167
h97q78 0 133 -55t55 -133v-479q0 -52 37 -88.5t88 -36.5h16q63 0 127.5 24t110 55t91 74.5t65.5 67t38 47.5v527z" />
    <glyph glyph-name="Amacron" unicode="&#x100;" horiz-adv-x="1343" 
d="M37 0l420 1380h409l430 -1380h-338l-106 354h-395l-99 -354h-321zM928 1503h-531v166h531v-166zM502 588h305l-86 293q-26 84 -70 266h-4q-5 -19 -27.5 -119t-35.5 -147z" />
    <glyph glyph-name="amacron" unicode="&#x101;" horiz-adv-x="1081" 
d="M383 -23q-146 0 -235 91t-89 217q0 190 157 286.5t431 96.5v12q0 53 -39.5 92t-142.5 39q-73 0 -149 -22t-128 -54l-57 201q162 90 389 90q121 0 208.5 -33.5t136.5 -95t71 -136.5t22 -169v-350q0 -164 17 -242h-281l-18 100h-6q-101 -123 -287 -123zM287 1192v172h512
v-172h-512zM367 315q0 -58 33.5 -88t88.5 -30q70 0 119 49.5t49 118.5v108q-290 0 -290 -158z" />
    <glyph glyph-name="Abreve" unicode="&#x102;" horiz-adv-x="1499" 
d="M838 1802v27h94v-25q0 -72 -47.5 -119t-118.5 -47h-37q-71 0 -117.5 47.5t-46.5 118.5v25h97v-27q0 -73 100 -73h-25q101 0 101 73zM1423 168h23v-168q-104 0 -173 31.5t-99 118.5l-140 438l-569 2l-135 -432q-18 -53 -44 -85.5t-64.5 -48t-74.5 -20t-94 -4.5v168h23
q44 0 64 13.5t30 41.5l422 1313h315l416 -1298q8 -25 16 -37.5t29 -22.5t55 -10zM518 758h557v12l-110 35l-215 670z" />
    <glyph glyph-name="abreve" unicode="&#x103;" horiz-adv-x="1081" 
d="M496 1229v26h96v-24q0 -71 -48 -118.5t-118 -47.5h-39q-70 0 -116 47.5t-46 118.5v24h97v-26q0 -74 100 -74h-25q99 0 99 74zM922 168h47v-166h-121q-55 0 -98 32.5t-58 84.5l66 284h-15l-77 -139q-25 -44 -54.5 -83.5t-69.5 -79.5t-91 -66t-105 -31q-175 -19 -266 62
q-71 65 -80 161v103q0 101 72.5 173t173.5 72h440v66q0 67 -35.5 110.5t-97.5 43.5h-238q-35 0 -57 -3.5t-45.5 -16t-35 -40.5t-11.5 -73h-166v55q0 101 72.5 173.5t173.5 72.5h360q101 0 173.5 -72.5t72.5 -173.5v-479q0 -29 20.5 -49.5t49.5 -20.5zM686 358v52h-422
q-38 0 -62.5 -22.5t-32.5 -55.5t-4.5 -69t17.5 -64q25 -49 78 -66.5t113 -7.5q173 47 313 233z" />
    <glyph glyph-name="Aogonek" unicode="&#x104;" horiz-adv-x="1343" 
d="M358 0h-323l422 1380h409l428 -1380l-166 -2q-51 -84 -51 -139q0 -51 31.5 -83t79.5 -32q43 0 90 14l43 -143q-39 -31 -97 -47.5t-112 -16.5q-108 0 -168.5 55.5t-60.5 162.5q0 106 75 233l-106 352h-395zM584 881l-82 -293h305l-86 293q-26 84 -70 266h-4
q-5 -19 -27.5 -119t-35.5 -147z" />
    <glyph glyph-name="aogonek" unicode="&#x105;" horiz-adv-x="1081" 
d="M383 -23q-146 0 -235 91t-89 217q0 190 157 286.5t431 96.5v12q0 53 -39.5 92t-142.5 39q-73 0 -149 -22t-128 -54l-57 201q162 90 389 90q121 0 208.5 -33.5t136.5 -95t71 -136.5t22 -169v-348q0 -166 17 -244h-111q-43 -80 -43 -145q0 -51 27.5 -79t71.5 -28
q43 0 90 21l43 -148q-93 -70 -215 -70q-95 0 -153 54.5t-58 154.5q0 19 2.5 39t5 36t8.5 35.5t10 32t11.5 31t10.5 26t10.5 24t8.5 18.5l-18 98h-6q-101 -123 -287 -123zM657 473q-290 0 -290 -158q0 -58 33.5 -88t88.5 -30q70 0 119 49.5t49 118.5v108z" />
    <glyph glyph-name="Cacute" unicode="&#x106;" horiz-adv-x="1218" 
d="M72 670q0 138 38 256.5t106.5 205t162.5 147.5t207 91.5t239 30.5q114 0 204 -18t136 -44l-65 -245q-115 51 -262 51q-194 0 -316.5 -118t-122.5 -339q0 -208 117.5 -329t323.5 -121q157 0 262 45l45 -246q-48 -23 -143 -41.5t-209 -18.5q-175 0 -313.5 53t-227.5 146.5
t-135.5 219t-46.5 274.5zM850 1456h-250l172 252h328z" />
    <glyph glyph-name="cacute" unicode="&#x107;" horiz-adv-x="923" 
d="M68 492q0 111 37.5 207t108.5 168.5t181 114.5t246 42q135 0 238 -39l-50 -231q-69 30 -174 30q-122 0 -196 -78t-72 -202q0 -132 78 -206.5t197 -74.5q100 0 178 33l37 -229q-96 -47 -279 -47q-243 0 -386.5 138.5t-143.5 373.5zM633 1126h-213l176 312h287z" />
    <glyph glyph-name="Ccircumflex" unicode="&#x108;" horiz-adv-x="1169" 
d="M53 1290q0 106 71.5 176t174.5 70h569q101 0 173.5 -72.5t74.5 -173.5v-55h-170v35q0 40 -28 68t-68 28h-531q-40 0 -68 -28t-28 -68v-1004q0 -40 28 -68t68 -28h531q40 0 68 28t28 68v37h168v-57q0 -104 -68 -174.5t-178 -71.5h-569q-104 2 -175 70t-71 178v1042z
M506 1638h-146l91 252h264l90 -252h-146l-75 215z" />
    <glyph glyph-name="ccircumflex" unicode="&#x109;" horiz-adv-x="1017" 
d="M53 684q0 114 80.5 195.5t194.5 81.5h360q114 0 195.5 -81.5t81.5 -195.5v-86h-170v68q0 52 -36.5 88.5t-88.5 36.5h-322q-52 0 -88.5 -36.5t-36.5 -88.5v-377q1 -51 37.5 -85t87.5 -34l322 -2q52 0 88.5 37t36.5 88v69h170v-88q0 -114 -81.5 -194t-195.5 -80h-360
q-114 0 -194.5 81t-80.5 195v408zM287 1065l90 252h262l90 -252h-143l-78 215l-78 -215h-143z" />
    <glyph glyph-name="Cdotaccent" unicode="&#x10a;" horiz-adv-x="1218" 
d="M795 -23q-175 0 -313.5 53t-227.5 146.5t-135.5 219t-46.5 274.5q0 138 38 256.5t106.5 205t162.5 147.5t207 91.5t239 30.5q114 0 204 -18t136 -44l-65 -245q-115 51 -262 51q-194 0 -316.5 -118t-122.5 -339q0 -208 117.5 -329t323.5 -121q157 0 262 45l45 -246
q-48 -23 -143 -41.5t-209 -18.5zM735 1458q-59 0 -100 41.5t-41 97.5q0 60 41.5 101t101.5 41q58 0 97.5 -41t39.5 -101q0 -57 -40 -98t-99 -41z" />
    <glyph glyph-name="cdotaccent" unicode="&#x10b;" horiz-adv-x="923" 
d="M598 -20q-243 0 -386.5 138.5t-143.5 373.5q0 111 37.5 207t108.5 168.5t181 114.5t246 42q135 0 238 -39l-50 -231q-69 30 -174 30q-122 0 -196 -78t-72 -202q0 -132 78 -206.5t197 -74.5q100 0 178 33l37 -229q-96 -47 -279 -47zM567 1141q-61 0 -102 42t-41 101
q0 63 41.5 104.5t103.5 41.5q60 0 100 -41.5t40 -104.5q0 -59 -40.5 -101t-101.5 -42z" />
    <glyph glyph-name="Ccaron" unicode="&#x10c;" horiz-adv-x="1169" 
d="M53 1290q0 106 71.5 176t174.5 70h569q101 0 173.5 -72.5t74.5 -173.5v-55h-170v35q0 40 -28 68t-68 28h-531q-40 0 -68 -28t-28 -68v-1004q0 -40 28 -68t68 -28h531q40 0 68 28t28 68v37h168v-57q0 -104 -68 -174.5t-178 -71.5h-569q-104 2 -175 70t-71 178v1042z
M459 1638l-90 252h145l76 -217l80 217h143l-90 -252h-264z" />
    <glyph glyph-name="ccaron" unicode="&#x10d;" horiz-adv-x="1017" 
d="M53 276v408q0 114 80.5 195.5t194.5 81.5h360q114 0 195.5 -81.5t81.5 -195.5v-86h-170v68q0 52 -36.5 88.5t-88.5 36.5h-322q-52 0 -88.5 -36.5t-36.5 -88.5v-377q1 -51 37.5 -85t87.5 -34l322 -2q52 0 88.5 37t36.5 88v69h170v-88q0 -114 -81.5 -194t-195.5 -80h-360
q-114 0 -194.5 81t-80.5 195zM379 1065l-90 252h145l76 -215l76 215h145l-90 -252h-262z" />
    <glyph glyph-name="Dcaron" unicode="&#x10e;" horiz-adv-x="1282" 
d="M270 195q-2 -61 -16 -99.5t-43 -59.5t-65.5 -28.5t-92.5 -7.5v158q65 0 91.5 25t23.5 89l2 1264h639q180 0 300 -146t120 -358v-530q-2 -117 -31.5 -206.5t-77 -144.5t-116.5 -90t-142 -48t-162 -13q-185 0 -364 223l-74 113h-14zM336 334q4 -13 33 -43.5t75.5 -66.5
t120 -63t150.5 -26q340 30 344 367v530q0 86 -26.5 155t-66 107.5t-80.5 59t-77 20.5h-473v-1040zM420 1890h145l76 -217l80 217h143l-90 -252h-264z" />
    <glyph glyph-name="dcaron" unicode="&#x10f;" horiz-adv-x="1232" 
d="M1032 1448h-22v88h22q63 0 105.5 -43.5t42.5 -106.5q0 -73 -42.5 -125t-105.5 -51h-22v37q29 0 48.5 16.5t27 41.5t10 40.5t2.5 28.5q0 41 -13.5 57.5t-52.5 16.5zM53 684q0 114 81 194t196 80h299q56 0 106 -20v598h170v-1327q0 -17 11 -28t28 -11h78v-170h-96
q-73 0 -128 50t-63 122l58 227h-15l-41 -61q-39 -54 -56.5 -78t-55 -70.5t-61.5 -68.5t-63 -52.5t-73 -43.5t-78 -20.5t-90 -2.5q-91 10 -149 89t-58 185v408zM223 666v-371q0 -53 36.5 -89t88.5 -36q36 0 70.5 6.5t64.5 20t56 27.5t50.5 35t42 37t36.5 39t28.5 35t23 31
t15.5 21v252q-3 49 -39 83t-86 34h-262q-52 0 -88.5 -37t-36.5 -88z" />
    <glyph glyph-name="Dcroat" unicode="&#x110;" horiz-adv-x="1441" 
d="M6 582v243h146v541q198 31 419 31q197 0 332.5 -35t233.5 -111q111 -82 172 -215t61 -311q0 -160 -42.5 -286t-118 -211t-184.5 -141t-237.5 -80.5t-281.5 -24.5q-183 0 -354 18v582h-146zM463 825h274v-243h-274v-351q27 -6 108 -6q222 0 345.5 121.5t123.5 368.5
q0 221 -114 331.5t-322 110.5q-87 0 -141 -12v-320z" />
    <glyph glyph-name="dcroat" unicode="&#x111;" horiz-adv-x="1220" 
d="M68 492q-1 244 129.5 389t318.5 145q92 0 160.5 -30.5t103.5 -82.5h4v193h-372v170h372v178h312v-178h166v-170h-166v-807q0 -163 8 -299h-277l-12 145h-6q-45 -81 -129 -124.5t-184 -43.5q-182 0 -305 143t-123 372zM598 786q-103 0 -159 -80t-56 -204q0 -127 58 -202
t155 -75q94 0 141 63t47 158v132q0 88 -49.5 148t-136.5 60z" />
    <glyph glyph-name="Emacron" unicode="&#x112;" horiz-adv-x="1093" 
d="M1016 0h-879v1380h850v-256h-538v-286h507v-254h-507v-328h567v-256zM291 1669h530v-166h-530v166z" />
    <glyph glyph-name="emacron" unicode="&#x113;" horiz-adv-x="1081" 
d="M602 -20q-253 0 -393.5 136t-140.5 373q0 98 31 191t90.5 171t159 125.5t224.5 47.5q94 0 170.5 -28.5t127 -76t85 -112.5t49.5 -135.5t15 -147.5q0 -66 -10 -123h-645q6 -92 86 -141t196 -49q152 0 277 43l41 -211q-149 -63 -363 -63zM291 1192v172h512v-172h-512z
M362 614h369q0 32 -8 64t-26 65t-54.5 53.5t-87.5 20.5q-47 0 -84 -19.5t-59 -51.5t-34.5 -65.5t-15.5 -66.5z" />
    <glyph glyph-name="Ebreve" unicode="&#x114;" horiz-adv-x="1165" 
d="M670 1804v25h96v-25q0 -70 -48 -118t-118 -48h-39q-70 0 -116 47.5t-46 118.5v25h97v-25q0 -42 26 -58.5t74 -16.5h-25q99 0 99 75zM125 182v-12h987v-170h-1059v1536h1059v-170l-889 2v-364l-98 -31v-12h987v-170l-889 2l-2 -582z" />
    <glyph glyph-name="ebreve" unicode="&#x115;" horiz-adv-x="1081" 
d="M602 -20q-253 0 -393.5 136t-140.5 373q0 98 31 191t90.5 171t159 125.5t224.5 47.5q94 0 170.5 -28.5t127 -76t85 -112.5t49.5 -135.5t15 -147.5q0 -66 -10 -123h-645q6 -92 86 -141t196 -49q152 0 277 43l41 -211q-149 -63 -363 -63zM547 1126q-137 0 -209 81t-74 210
h162q17 -125 121 -125q59 0 90.5 35.5t34.5 89.5h162q-2 -133 -76.5 -212t-210.5 -79zM362 614h369q0 32 -8 64t-26 65t-54.5 53.5t-87.5 20.5q-47 0 -84 -19.5t-59 -51.5t-34.5 -65.5t-15.5 -66.5z" />
    <glyph glyph-name="Edotaccent" unicode="&#x116;" horiz-adv-x="1093" 
d="M1016 0h-879v1380h850v-256h-538v-286h507v-254h-507v-328h567v-256zM551 1460q-59 0 -100 41.5t-41 97.5q0 60 41.5 101t101.5 41q58 0 97.5 -41t39.5 -101q0 -57 -40 -98t-99 -41z" />
    <glyph glyph-name="edotaccent" unicode="&#x117;" horiz-adv-x="1081" 
d="M602 -20q-253 0 -393.5 136t-140.5 373q0 98 31 191t90.5 171t159 125.5t224.5 47.5q94 0 170.5 -28.5t127 -76t85 -112.5t49.5 -135.5t15 -147.5q0 -66 -10 -123h-645q6 -92 86 -141t196 -49q152 0 277 43l41 -211q-149 -63 -363 -63zM410 1284q0 63 41.5 104.5
t103.5 41.5q60 0 99.5 -41.5t39.5 -104.5q0 -59 -40 -101t-101 -42t-102 42t-41 101zM555 817q-47 0 -84 -19.5t-59 -51.5t-34.5 -65.5t-15.5 -66.5h369q0 32 -8 64t-26 65t-54.5 53.5t-87.5 20.5z" />
    <glyph glyph-name="Eogonek" unicode="&#x118;" horiz-adv-x="1093" 
d="M137 1380h850v-256h-538v-286h507v-254h-507v-328h567v-256h-51q-57 -38 -98.5 -89.5t-41.5 -98.5q0 -31 21 -48.5t57 -17.5q47 0 86 16l43 -147q-92 -64 -221 -64q-100 0 -156.5 50.5t-56.5 140.5q0 80 42.5 146.5t102.5 111.5h-606v1380z" />
    <glyph glyph-name="eogonek" unicode="&#x119;" horiz-adv-x="1081" 
d="M68 489q0 98 31 191t90.5 171t159 125.5t224.5 47.5q95 0 171.5 -28.5t127 -76t84.5 -112.5t49 -135.5t15 -147.5q0 -85 -10 -123h-645q6 -92 86 -141t196 -49q152 0 277 43l41 -211q-16 -7 -46.5 -18t-41.5 -15q-61 -25 -119 -85.5t-58 -110.5q0 -33 20.5 -50.5
t49.5 -17.5q45 0 92 21l47 -144q-87 -69 -219 -69q-96 0 -152.5 47t-56.5 127q0 75 41.5 139.5t95.5 109.5v3h-26q-247 1 -385.5 137.5t-138.5 371.5zM362 614h369q0 32 -8 64t-26 65t-54 53.5t-86 20.5q-47 0 -85 -19.5t-60 -51.5t-34.5 -65.5t-15.5 -66.5z" />
    <glyph glyph-name="Ecaron" unicode="&#x11a;" horiz-adv-x="1165" 
d="M1112 0h-1059v1536h1059v-170l-889 2v-364l-98 -31v-12h987v-170l-889 2v-582l-98 -29v-12h987v-170zM453 1638l-91 252h146l76 -217l80 217h143l-90 -252h-264z" />
    <glyph glyph-name="ecaron" unicode="&#x11b;" horiz-adv-x="1017" 
d="M53 700q0 114 79.5 187.5t195.5 73.5h360q114 0 195.5 -81t81.5 -196v-61q-6 -89 -63.5 -159t-143.5 -93q-43 -11 -105 -11q-136 0 -233 60q-35 21 -80.5 90.5t-73.5 128.5l-28 59l-43 66h-15l43 -180v-295q1 -51 37.5 -86t87.5 -35h322q52 0 88.5 37t36.5 88v65h170v-84
q0 -114 -81.5 -194t-195.5 -80h-364q-117 0 -192.5 67.5t-78.5 186.5v446zM258 754q196 -224 395 -224h17q52 0 88.5 37t36.5 88v17q-2 50 -38 84.5t-87 34.5h-322q-56 0 -90 -37zM408 1317l75 -215l76 215h146l-91 -252h-262l-90 252h146z" />
    <glyph glyph-name="Gcircumflex" unicode="&#x11c;" horiz-adv-x="1396" 
d="M266 170q-94 91 -144 221.5t-50 282.5q1 224 104 389t279.5 248.5t404.5 83.5q123 0 223.5 -19.5t159.5 -46.5l-65 -252q-130 60 -320 60q-204 0 -331.5 -115t-127.5 -332q0 -211 120.5 -331.5t316.5 -120.5q106 0 151 18v291h-213v244h514v-728q-87 -30 -212 -53.5
t-249 -23.5q-368 0 -561 184zM659 1460h-217l205 252h234l206 -252h-219l-102 127h-4z" />
    <glyph glyph-name="gcircumflex" unicode="&#x11d;" horiz-adv-x="1198" 
d="M68 496q0 119 36 219t98 167t144.5 104.5t175.5 37.5q188 0 275 -143h4l10 120h270q-8 -132 -8 -299v-557q0 -291 -135 -432t-424 -141q-220 0 -360 76l61 237q53 -31 130.5 -53t160.5 -22q117 0 188.5 65.5t71.5 198.5v63h-4q-44 -62 -114 -95.5t-156 -33.5
q-186 0 -305 136.5t-119 351.5zM588 788q-89 0 -147 -75.5t-58 -208.5q0 -116 54.5 -191t148.5 -75q88 0 132 59.5t44 148.5v148q0 83 -45.5 138.5t-128.5 55.5zM293 1128l205 312h209l202 -312h-202l-103 179h-4l-104 -179h-203z" />
    <glyph glyph-name="Gbreve" unicode="&#x11e;" horiz-adv-x="1396" 
d="M72 674q1 224 104 389t279.5 248.5t404.5 83.5q123 0 223.5 -19.5t159.5 -46.5l-65 -252q-130 60 -320 60q-204 0 -331.5 -115t-127.5 -332q0 -211 120.5 -331.5t316.5 -120.5q106 0 151 18v291h-213v244h514v-728q-87 -30 -212 -53.5t-249 -23.5q-371 0 -561 184
q-94 91 -144 221.5t-50 282.5zM772 1464q-144 0 -214 69.5t-73 188.5h166q13 -94 121 -94q110 0 129 94h160q-3 -118 -75 -188t-214 -70z" />
    <glyph glyph-name="gbreve" unicode="&#x11f;" horiz-adv-x="1198" 
d="M68 496q0 119 36 219t98 167t144.5 104.5t175.5 37.5q188 0 275 -143h4l10 120h270q-8 -132 -8 -299v-557q0 -291 -135 -432t-424 -141q-220 0 -360 76l61 237q53 -31 130.5 -53t160.5 -22q117 0 188.5 65.5t71.5 198.5v63h-4q-44 -62 -114 -95.5t-156 -33.5
q-186 0 -305 136.5t-119 351.5zM383 504q0 -116 54.5 -191t148.5 -75q88 0 132 59.5t44 148.5v148q0 83 -45.5 138.5t-128.5 55.5q-89 0 -147 -75.5t-58 -208.5zM313 1417h162q17 -125 121 -125q59 0 90.5 35.5t34.5 89.5h162q-2 -133 -76.5 -212t-210.5 -79q-137 0 -209 81
t-74 210z" />
    <glyph glyph-name="Gdotaccent" unicode="&#x120;" horiz-adv-x="1396" 
d="M72 674q1 224 104 389t279.5 248.5t404.5 83.5q123 0 223.5 -19.5t159.5 -46.5l-65 -252q-130 60 -320 60q-204 0 -331.5 -115t-127.5 -332q0 -211 120.5 -331.5t316.5 -120.5q106 0 151 18v291h-213v244h514v-728q-87 -30 -212 -53.5t-249 -23.5q-371 0 -561 184
q-94 91 -144 221.5t-50 282.5zM627 1597q0 60 41.5 101t101.5 41q58 0 97.5 -41t39.5 -101q0 -57 -40 -98t-99 -41t-100 41.5t-41 97.5z" />
    <glyph glyph-name="gdotaccent" unicode="&#x121;" horiz-adv-x="1198" 
d="M492 8q-186 0 -305 136.5t-119 351.5q0 119 36 219t98 167t144.5 104.5t175.5 37.5q188 0 275 -143h4l10 120h270q-8 -132 -8 -299v-557q0 -291 -135 -432t-424 -141q-220 0 -360 76l61 237q53 -31 130.5 -53t160.5 -22q117 0 188.5 65.5t71.5 198.5v63h-4
q-44 -62 -114 -95.5t-156 -33.5zM383 504q0 -116 54.5 -191t148.5 -75q88 0 132 59.5t44 148.5v148q0 83 -45.5 138.5t-128.5 55.5q-89 0 -147 -75.5t-58 -208.5zM451 1286q0 63 41.5 104.5t103.5 41.5q60 0 99.5 -41.5t39.5 -104.5q0 -59 -40 -101t-101 -42t-102 42
t-41 101z" />
    <glyph glyph-name="uni0122" unicode="&#x122;" horiz-adv-x="1396" 
d="M72 674q1 224 104 389t279.5 248.5t404.5 83.5q123 0 223.5 -19.5t159.5 -46.5l-65 -252q-130 60 -320 60q-204 0 -331.5 -115t-127.5 -332q0 -211 120.5 -331.5t316.5 -120.5q106 0 151 18v291h-213v244h514v-728q-87 -30 -212 -53.5t-249 -23.5q-371 0 -561 184
q-94 91 -144 221.5t-50 282.5zM543 -362q56 10 95.5 42.5t39.5 81.5q0 57 -60 121l216 37q34 -25 56.5 -68t22.5 -94q0 -121 -90 -185t-233 -69z" />
    <glyph glyph-name="uni0123" unicode="&#x123;" horiz-adv-x="1198" 
d="M492 8q-186 0 -305 136.5t-119 351.5q0 119 36 219t98 167t144.5 104.5t175.5 37.5q188 0 275 -143h4l10 120h270q-8 -132 -8 -299v-557q0 -291 -135 -432t-424 -141q-220 0 -360 76l61 237q53 -31 130.5 -53t160.5 -22q117 0 188.5 65.5t71.5 198.5v63h-4
q-44 -62 -114 -95.5t-156 -33.5zM588 788q-89 0 -147 -75.5t-58 -208.5q0 -116 54.5 -191t148.5 -75q88 0 132 59.5t44 148.5v148q0 83 -45.5 138.5t-128.5 55.5zM506 1104q-33 22 -56.5 62t-23.5 85q0 112 90 169.5t234 62.5l45 -111q-66 -10 -107 -41t-41 -82
q0 -54 62 -112z" />
    <glyph glyph-name="Hcircumflex" unicode="&#x124;" horiz-adv-x="1411" 
d="M449 0h-312v1380h312v-530h514v530h311v-1380h-311v578h-514v-578zM600 1454h-217l205 252h233l207 -252h-219l-102 127h-5z" />
    <glyph glyph-name="hcircumflex" unicode="&#x125;" horiz-adv-x="1200" 
d="M125 0v1454h311v-573h4q49 67 125 105t160 38q157 0 253.5 -111t96.5 -329v-584h-311v551q0 221 -162 221q-73 0 -119.5 -52.5t-46.5 -125.5v-594h-311zM186 1503h-217l205 252h234l206 -252h-219l-102 127h-4z" />
    <glyph glyph-name="Hbar" unicode="&#x126;" horiz-adv-x="1435" 
d="M16 1149h131v231h312v-231h516v231h311v-231h131v-184h-131v-965h-311v524h-516v-524h-312v965h-131v184zM975 965h-516v-168h516v168z" />
    <glyph glyph-name="hbar" unicode="&#x127;" horiz-adv-x="1200" 
d="M125 1106h-160v170h160v178h311v-178h375v-170h-375v-225h4q49 67 125 105t160 38q157 0 253.5 -111t96.5 -329v-584h-311v551q0 221 -162 221q-73 0 -119.5 -52.5t-46.5 -125.5v-594h-311v1106z" />
    <glyph glyph-name="Itilde" unicode="&#x128;" horiz-adv-x="583" 
d="M137 1380h312v-1380h-312v1380zM6 1464q-3 126 40 193t118 67q65 0 131 -41q66 -38 90 -38q26 0 37.5 18t17.5 70h140q3 -134 -37.5 -195t-122.5 -61q-61 0 -133 39q-7 4 -20 11.5t-19 10.5t-15.5 7t-17.5 5.5t-16 1.5q-43 0 -49 -88h-144z" />
    <glyph glyph-name="itilde" unicode="&#x129;" horiz-adv-x="561" 
d="M125 1001h311v-1001h-311v1001zM-10 1141q-4 128 42 199t126 71q49 0 133 -41q10 -5 29.5 -16.5t32.5 -17t24 -5.5q25 0 37 18.5t16 71.5h143q8 -262 -167 -262q-12 0 -23 1t-23 4t-19.5 5t-21 8t-18 7.5t-20 9t-17.5 8.5q-9 5 -23.5 13.5t-20 11t-15 5.5t-19.5 3
q-43 0 -49 -94h-147z" />
    <glyph glyph-name="Imacron" unicode="&#x12a;" horiz-adv-x="583" 
d="M137 1380h312v-1380h-312v1380zM27 1669h530v-166h-530v166z" />
    <glyph glyph-name="imacron" unicode="&#x12b;" horiz-adv-x="561" 
d="M436 0h-311v1001h311v-1001zM25 1364h512v-172h-512v172z" />
    <glyph glyph-name="Ibreve" unicode="&#x12c;" horiz-adv-x="473" 
d="M324 1802v27h96v-25q0 -72 -47.5 -120t-118.5 -48h-39q-70 0 -116 48t-46 120v25h97v-27q0 -41 25.5 -57t74.5 -16h-25q48 0 73.5 16t25.5 57zM322 0h-170v1536h170v-1536z" />
    <glyph glyph-name="ibreve" unicode="&#x12d;" horiz-adv-x="561" 
d="M436 0h-311v1001h311v-1001zM-2 1417h162q17 -125 121 -125q59 0 90.5 35.5t34.5 89.5h161q-2 -133 -76 -212t-210 -79q-137 0 -209 81t-74 210z" />
    <glyph glyph-name="Iogonek" unicode="&#x12e;" horiz-adv-x="583" 
d="M68 -233q0 98 69 233v1380h312v-1380h-142q-45 -79 -45 -141q0 -52 31.5 -83.5t79.5 -31.5q55 0 90 14l43 -143q-39 -32 -96.5 -49t-112.5 -17q-108 0 -168.5 55.5t-60.5 162.5z" />
    <glyph glyph-name="iogonek" unicode="&#x12f;" horiz-adv-x="561" 
d="M57 -231q0 15 1.5 31t5 32t7 30t9 29.5t9.5 26.5t10.5 26t9.5 21.5l9 19.5t7 15v1001h311v-1001h-139q-45 -79 -45 -141q0 -51 31 -83t79 -32q56 0 91 14l43 -143q-39 -32 -96.5 -49t-112.5 -17q-108 0 -169 56t-61 164zM111 1290q0 70 47 116t123 46q77 0 124.5 -46
t47.5 -116q0 -69 -48 -115.5t-126 -46.5q-75 0 -121.5 46.5t-46.5 115.5z" />
    <glyph glyph-name="Idotaccent" unicode="&#x130;" horiz-adv-x="296" 
d="M238 1765q13 -38 -4 -73.5t-54 -49.5q-37 -13 -73 4t-48 54q-13 37 4 73t54 50q37 12 73 -5t48 -53zM233 0h-170v1536h170v-1536z" />
    <glyph glyph-name="dotlessi" unicode="&#x131;" horiz-adv-x="561" 
d="M436 0h-311v1001h311v-1001z" />
    <glyph glyph-name="IJ" unicode="&#x132;" horiz-adv-x="1425" 
d="M811 -23q-128 0 -229 33l34 252q74 -24 160 -24q106 0 159.5 60.5t53.5 213.5v868h311v-872q0 -283 -125.5 -407t-363.5 -124zM137 1380h312v-1380h-312v1380z" />
    <glyph glyph-name="ij" unicode="&#x133;" horiz-adv-x="1157" 
d="M512 -440l-31 243q132 10 185 66q34 36 47.5 107t13.5 219v806h311v-880q0 -281 -125 -421t-401 -140zM125 1001h311v-1001h-311v1001zM717 1280q0 67 46 111.5t120 44.5q73 0 117.5 -44t46.5 -112q0 -66 -46 -111t-122 -45q-72 0 -117 45t-45 111zM117 1280
q0 67 46 111.5t120 44.5q73 0 117 -44t46 -112q0 -67 -45.5 -111.5t-121.5 -44.5q-72 0 -117 45t-45 111z" />
    <glyph glyph-name="Jcircumflex" unicode="&#x134;" horiz-adv-x="841" 
d="M227 -23q-128 0 -229 33l35 252q74 -24 160 -24q106 0 159.5 60.5t53.5 211.5v870h311v-872q0 -283 -126 -407t-364 -124zM453 1454h-217l204 252h234l207 -252h-219l-103 127h-4z" />
    <glyph glyph-name="jcircumflex" unicode="&#x135;" horiz-adv-x="595" 
d="M-49 -440l-31 243q131 10 184 66q34 36 48 107.5t14 218.5v806h311v-882q0 -281 -124.5 -420t-401.5 -139zM199 1120h-203l205 312h209l202 -312h-202l-103 178h-4z" />
    <glyph glyph-name="uni0136" unicode="&#x136;" horiz-adv-x="1257" 
d="M135 0v1380h309v-610h5q42 72 96 152l311 458h385l-457 -587l480 -793h-363l-340 596l-117 -145v-451h-309zM446 -360q56 10 96 42.5t40 81.5q0 57 -60 121l215 37q34 -26 57 -68.5t23 -93.5q0 -121 -90 -185t-233 -69z" />
    <glyph glyph-name="uni0137" unicode="&#x137;" horiz-adv-x="1110" 
d="M436 0h-311v1454h311v-874h4q34 64 72 120l203 301h375l-359 -405l410 -596h-383l-244 412l-78 -99v-313zM369 -362q56 10 95.5 42.5t39.5 81.5q0 57 -60 121l215 37q34 -26 57 -68.5t23 -93.5q0 -121 -90 -185t-233 -69z" />
    <glyph glyph-name="kgreenlandic" unicode="&#x138;" horiz-adv-x="1110" 
d="M125 0v1001h311v-421h4q34 64 72 120l203 301h375l-359 -405l410 -596h-383l-244 412l-78 -99v-313h-311z" />
    <glyph glyph-name="Lacute" unicode="&#x139;" horiz-adv-x="1273" 
d="M299 1890l-90 -252h-146l91 252h145zM125 170h1096v-170h-1168v1536h170l-2 -1325l-96 -29v-12z" />
    <glyph glyph-name="lacute" unicode="&#x13a;" horiz-adv-x="393" 
d="M307 1890l-92 -254h-143l90 254h145zM293 168h47v-168h-121h-10q-66 4 -111 53t-45 115v1368h170v-1300q0 -42 15.5 -55t54.5 -13z" />
    <glyph glyph-name="uni013B" unicode="&#x13b;" horiz-adv-x="1046" 
d="M137 0v1380h312v-1118h548v-262h-860zM342 -362q56 10 95.5 42.5t39.5 81.5q0 58 -59 121l215 37q34 -26 57 -68.5t23 -93.5q0 -121 -90.5 -185t-233.5 -69z" />
    <glyph glyph-name="uni013C" unicode="&#x13c;" horiz-adv-x="563" 
d="M436 0h-311v1454h311v-1454zM121 -496l-47 134q56 10 95.5 42.5t39.5 81.5q0 58 -59 121l215 37q34 -25 56.5 -68t22.5 -94q0 -121 -90 -185t-233 -69z" />
    <glyph glyph-name="Lcaron" unicode="&#x13d;" horiz-adv-x="1273" 
d="M348 1448h-22v88h22q63 0 105.5 -43.5t42.5 -106.5q0 -74 -42 -126t-106 -52h-22v39q29 0 48.5 16t27 41t10 40.5t2.5 29.5q0 40 -14 57t-52 17zM125 170h1096v-170h-1168v1536h170l-2 -1325l-96 -29v-12z" />
    <glyph glyph-name="lcaron" unicode="&#x13e;" horiz-adv-x="550" 
d="M350 1448h-22v86h22q63 0 105.5 -42.5t42.5 -105.5q0 -74 -42.5 -126t-105.5 -52h-22v39q29 -1 48.5 15t26.5 41.5t9 40t2 28.5q0 42 -13 59t-51 17zM53 137v1399h170v-1327q0 -17 11 -29t28 -12h78v-168h-156q-50 0 -90.5 37t-40.5 100z" />
    <glyph glyph-name="Ldot" unicode="&#x13f;" horiz-adv-x="1046" 
d="M137 1380h312v-1118h548v-262h-860v1380zM643 774q0 60 41.5 100.5t101.5 40.5q59 0 98.5 -40.5t39.5 -100.5q0 -56 -40.5 -97.5t-99.5 -41.5t-100 41.5t-41 97.5z" />
    <glyph glyph-name="ldot" unicode="&#x140;" horiz-adv-x="724" 
d="M125 1454h311v-1454h-311v1454zM512 815q0 60 39 99.5t96 39.5q54 0 90.5 -39.5t36.5 -99.5q0 -58 -37 -98.5t-92 -40.5q-56 0 -94.5 40.5t-38.5 98.5z" />
    <glyph glyph-name="Lslash" unicode="&#x141;" horiz-adv-x="1566" 
d="M420 170h1093v-170h-1165v518l-92 -121h-203l295 389v750h170l-2 -524l96 127h201l-297 -394v-534l-96 -29v-12z" />
    <glyph glyph-name="lslash" unicode="&#x142;" horiz-adv-x="866" 
d="M559 168h76v-168h-156q-49 0 -89 37t-40 100v385l-94 -125h-203l297 394v745h168v-520l94 123h201l-295 -391v-539q0 -17 12 -29t29 -12z" />
    <glyph glyph-name="Nacute" unicode="&#x143;" horiz-adv-x="1413" 
d="M135 0v1380h365l286 -506q122 -216 226 -473h4q-25 253 -25 578v401h287v-1380h-328l-295 532q-149 267 -239 488h-8q14 -258 14 -604v-416h-287zM799 1454h-250l172 252h328z" />
    <glyph glyph-name="nacute" unicode="&#x144;" horiz-adv-x="1200" 
d="M125 682q0 139 -8 319h270l14 -139h7q39 63 117.5 112.5t191.5 49.5q161 0 259.5 -109.5t98.5 -322.5v-592h-311v555q0 217 -158 217q-80 0 -125 -57t-45 -137v-578h-311v682zM662 1126h-213l174 312h288z" />
    <glyph glyph-name="uni0145" unicode="&#x145;" horiz-adv-x="1413" 
d="M135 0v1380h365l286 -506q122 -216 226 -473h4q-25 253 -25 578v401h287v-1380h-328l-295 532q-149 267 -239 488h-8q14 -258 14 -604v-416h-287zM520 -358q56 10 95.5 43t39.5 82q0 57 -59 120l215 37q34 -26 57 -68.5t23 -93.5q0 -121 -91 -185t-235 -69z" />
    <glyph glyph-name="uni0146" unicode="&#x146;" horiz-adv-x="1200" 
d="M125 682q0 139 -8 319h270l14 -139h7q39 63 117.5 112.5t191.5 49.5q161 0 259.5 -109.5t98.5 -322.5v-592h-311v555q0 217 -158 217q-80 0 -125 -57t-45 -137v-578h-311v682zM412 -360q56 10 95.5 42.5t39.5 81.5q0 57 -60 121l215 37q34 -26 57 -68.5t23 -93.5
q0 -121 -90 -185t-233 -69z" />
    <glyph glyph-name="Ncaron" unicode="&#x147;" horiz-adv-x="1284" 
d="M53 1536h322l686 -1466v1466h170v-1536h-324l-684 1460v-1460h-170v1536zM420 1890h145l76 -217l80 217h143l-90 -252h-264z" />
    <glyph glyph-name="ncaron" unicode="&#x148;" horiz-adv-x="1132" 
d="M53 961h170v-187v-2l-45 -203h15l40 76q13 21 41 71.5t46.5 80.5t50.5 66t67 55q92 51 213 51q66 -4 107 -13q91 -25 149 -99.5t58 -166.5v-479q0 -17 11 -29t28 -12h75v-168h-94q-78 0 -134 56.5t-56 134.5v479q0 51 -36.5 88t-88.5 37h-15q-63 0 -127.5 -24t-111 -56.5
t-91 -75t-65.5 -68t-37 -47.5v-526h-170v961zM393 1065l-90 252h146l75 -215l76 215h145l-90 -252h-262z" />
    <glyph glyph-name="napostrophe" unicode="&#x149;" horiz-adv-x="1200" 
d="M125 682q0 139 -8 319h270l14 -139h7q39 63 117.5 112.5t191.5 49.5q161 0 259.5 -109.5t98.5 -322.5v-592h-311v555q0 217 -158 217q-80 0 -125 -57t-45 -137v-578h-311v682zM156 1073l-140 84q64 95 64 178q0 65 -41 113l199 51q25 -17 45 -59.5t20 -96.5
q0 -146 -147 -270z" />
    <glyph glyph-name="Eng" unicode="&#x14a;" horiz-adv-x="1413" 
d="M135 0v1380h365l286 -506q122 -216 226 -473h4q-25 253 -25 578v401h287v-1282q0 -253 -123 -383t-344 -155l-68 235q104 25 159.5 66.5t68.5 107.5l-316 563q-149 267 -239 488h-8q14 -258 14 -604v-416h-287z" />
    <glyph glyph-name="eng" unicode="&#x14b;" horiz-adv-x="1200" 
d="M117 1001h270l14 -139h7q39 63 117.5 112.5t191.5 49.5q161 0 259.5 -109.5t98.5 -322.5v-471q0 -471 -424 -520l-61 241q92 17 133 70.5t41 159.5v483q0 217 -158 217q-80 0 -125 -57t-45 -137v-578h-311v682q0 139 -8 319z" />
    <glyph glyph-name="Omacron" unicode="&#x14c;" horiz-adv-x="1468" 
d="M72 682q0 206 82 370t236 258.5t353 94.5q155 0 281 -55.5t207 -151t124.5 -222t43.5 -271.5q0 -338 -185 -533t-493 -195q-199 0 -348 94.5t-225 253t-76 357.5zM737 1157q-156 0 -246 -131.5t-90 -337.5q0 -207 90.5 -335t245.5 -128q103 0 179 61.5t114.5 167
t38.5 240.5q0 127 -37.5 231t-114 168t-180.5 64zM1001 1507h-530v166h530v-166z" />
    <glyph glyph-name="omacron" unicode="&#x14d;" horiz-adv-x="1181" 
d="M68 494q0 244 146 388t390 144q228 0 369 -143t141 -371q0 -133 -44.5 -237.5t-119.5 -168t-168 -96.5t-196 -33q-226 0 -372 140t-146 377zM594 803q-70 0 -118 -46t-67.5 -111.5t-19.5 -143.5q0 -133 54 -217t151 -84q92 0 145.5 83t53.5 220q0 78 -19.5 143.5
t-66 110.5t-113.5 45zM848 1192h-512v172h512v-172z" />
    <glyph glyph-name="Obreve" unicode="&#x14e;" horiz-adv-x="1286" 
d="M731 1804v25h94v-25q0 -70 -47.5 -118t-118.5 -48h-36q-70 0 -117 47.5t-47 118.5v25h96v-25q0 -42 26 -58.5t74 -16.5h-24q48 0 74 16.5t26 58.5zM733 1536q217 0 358.5 -140t141.5 -356v-518q0 -143 -64 -262.5t-179 -189.5t-257 -70h-158q-106 0 -203 41t-167 111
t-111 167t-41 203v518q0 214 151.5 355t370.5 141h158zM1065 995q0 178 -99 275.5t-278 97.5h-67q-182 0 -291 -98.5t-109 -274.5v-426q0 -179 111 -290t289 -111h67q176 0 276.5 110t100.5 291v426z" />
    <glyph glyph-name="obreve" unicode="&#x14f;" horiz-adv-x="1017" 
d="M596 1229v24h96v-24q0 -71 -48 -118.5t-120 -47.5h-37q-70 0 -115.5 47.5t-45.5 118.5v24h96v-24q0 -76 98 -76h-22q98 0 98 76zM719 961q101 0 173.5 -72.5t72.5 -173.5v-469q0 -101 -72.5 -173.5t-173.5 -72.5h-420q-99 0 -172.5 68.5t-73.5 164.5v482
q0 101 72.5 173.5t173.5 72.5h420zM797 297v367q0 63 -33.5 97t-97.5 34h-316q-63 0 -97 -34t-34 -97v-373q0 -127 131 -127h316q64 0 97.5 34.5t33.5 98.5z" />
    <glyph glyph-name="Ohungarumlaut" unicode="&#x150;" horiz-adv-x="1286" 
d="M657 1890l-90 -252h-145l90 252h145zM913 1890l-90 -252h-145l90 252h145zM575 1536h158q217 0 358.5 -140t141.5 -356v-518q0 -143 -64 -262.5t-179 -189.5t-257 -70h-158q-106 0 -203 41t-167 111t-111 167t-41 203v518q0 214 151.5 355t370.5 141zM1065 569v426
q0 178 -99 275.5t-278 97.5h-67q-182 0 -291 -98.5t-109 -274.5v-426q0 -179 111 -290t289 -111h67q176 0 276.5 110t100.5 291z" />
    <glyph glyph-name="ohungarumlaut" unicode="&#x151;" horiz-adv-x="1017" 
d="M543 1315l-90 -252h-146l90 252h146zM799 1315l-90 -252h-146l90 252h146zM299 961h420q101 0 173.5 -72.5t72.5 -173.5v-469q0 -101 -72.5 -173.5t-173.5 -72.5h-420q-99 0 -172.5 68.5t-73.5 164.5v482q0 101 72.5 173.5t173.5 72.5zM797 297v367q0 63 -33.5 97
t-97.5 34h-316q-63 0 -97 -34t-34 -97v-373q0 -127 131 -127h316q64 0 97.5 34.5t33.5 98.5z" />
    <glyph glyph-name="OE" unicode="&#x152;" horiz-adv-x="1916" 
d="M72 678q0 331 191.5 529t506.5 198q86 0 184 -12q111 -13 129 -13h725v-256h-538v-286h508v-254h-508v-328h567v-256h-778q-31 0 -125 -12q-86 -11 -170 -11q-138 0 -252.5 37t-195 102t-136 154t-82 192t-26.5 216zM401 690q0 -209 110.5 -337t307.5 -128q84 0 139 25
v878q-63 29 -161 29q-81 0 -152.5 -31t-126 -88.5t-86 -147t-31.5 -200.5z" />
    <glyph glyph-name="oe" unicode="&#x153;" horiz-adv-x="1777" 
d="M68 500q0 235 143 380.5t367 145.5q113 0 208 -46t144 -132h4q59 87 150 132.5t198 45.5q92 0 166.5 -29t124 -77t83 -113t48 -135t14.5 -146q0 -38 -8 -118h-633q6 -90 83.5 -144.5t189.5 -54.5q138 0 278 53l43 -209q-138 -76 -364 -76q-246 0 -369 179h-6
q-61 -89 -159.5 -134t-215.5 -45q-209 0 -349 142t-140 381zM592 803q-56 0 -97 -27t-63.5 -72t-32.5 -95.5t-10 -106.5q0 -132 53.5 -216.5t147.5 -84.5t146 82t52 221q0 127 -49.5 213t-146.5 86zM1255 817q-59 0 -102 -34t-61 -77.5t-19 -87.5h357q0 32 -6.5 62
t-23.5 63.5t-54 53.5t-91 20z" />
    <glyph glyph-name="Racute" unicode="&#x154;" horiz-adv-x="1214" 
d="M135 0v1362q181 29 416 29q92 0 168 -9t154 -35.5t131.5 -69.5t87.5 -116t34 -170q0 -122 -72 -212t-171 -126v-6q128 -52 184 -256q12 -43 39 -149.5t43.5 -162t28.5 -79.5h-320q-38 78 -94 322q-19 87 -48 134.5t-70.5 66.5t-108.5 20h-93v-543h-309zM586 1157
q-104 0 -142 -10v-379h123q116 0 182 53.5t66 145.5q0 93 -60 141.5t-169 48.5zM682 1456h-250l172 252h328z" />
    <glyph glyph-name="racute" unicode="&#x155;" horiz-adv-x="1132" 
d="M1079 684v-29h-168v17q-3 51 -38.5 86t-86.5 35h-16q-63 0 -127 -24t-110.5 -56t-91 -74.5t-65.5 -68t-38 -48.5l2 -522h-170v754q0 15 -12 27t-27 12h-78v168h97q69 0 123 -50.5t65 -119.5v-23l-19 -88l-28 -121h12l47 82q13 21 41 71.5t46.5 80.5t50.5 65.5t67 54.5
q85 45 190 48q334 -12 334 -277zM621 1319l-93 -254h-145l92 254h146z" />
    <glyph glyph-name="uni0156" unicode="&#x156;" horiz-adv-x="1214" 
d="M444 0h-309v1362q181 29 416 29q92 0 168 -9t154 -35.5t131.5 -69.5t87.5 -116t34 -170q0 -122 -72 -212t-171 -126v-6q128 -52 184 -256q12 -43 39 -149.5t43.5 -162t28.5 -79.5h-320q-38 78 -94 322q-19 87 -48 134.5t-70.5 66.5t-108.5 20h-93v-543zM586 1157
q-104 0 -142 -10v-379h123q116 0 182 53.5t66 145.5q0 93 -60 141.5t-169 48.5zM420 -358q56 10 95.5 43t39.5 82q0 57 -59 120l215 37q34 -26 57 -68.5t23 -93.5q0 -121 -90.5 -185t-233.5 -69z" />
    <glyph glyph-name="uni0157" unicode="&#x157;" horiz-adv-x="778" 
d="M125 672q0 214 -8 329h266l12 -184h8q36 103 112.5 156t158.5 53q30 0 65 -6v-293q-50 8 -84 8q-108 0 -163.5 -60.5t-55.5 -166.5v-508h-311v672zM88 -362q56 10 95.5 42.5t39.5 81.5q0 58 -59 121l215 37q34 -26 57 -68.5t23 -93.5q0 -121 -90.5 -185t-233.5 -69z" />
    <glyph glyph-name="Rcaron" unicode="&#x158;" horiz-adv-x="1327" 
d="M223 0h-170v1536h813q101 0 173.5 -72.5t72.5 -173.5h-2l2 -313q0 -73 -41 -137q86 -76 86 -187v-364q0 -67 21.5 -94t95.5 -27v-168h-39q-95 0 -170.5 72t-75.5 166v366q0 52 -37 88.5t-88 36.5h-641v-729zM125 909v-12h700q49 3 83 39t36 86v219q0 52 -37 88.5
t-88 36.5h-596v-426zM401 1638l-90 252h146l75 -217l80 217h144l-90 -252h-265z" />
    <glyph glyph-name="rcaron" unicode="&#x159;" horiz-adv-x="1132" 
d="M53 793v168h97q69 0 123 -50.5t65 -119.5l2 -23l-49 -209h12l47 82q8 15 31 57.5t36.5 65.5t36.5 56t47.5 55.5t53.5 37.5q85 45 190 48q336 -12 336 -277v-29h-170q0 60 -33 99t-92 39h-16q-63 0 -127 -24t-110.5 -56t-90 -74t-65.5 -68.5t-37 -48.5v-522h-170v754
q0 15 -12 27t-27 12h-78zM391 1065l-90 252h145l76 -213l76 213h145l-90 -252h-262z" />
    <glyph glyph-name="Sacute" unicode="&#x15a;" horiz-adv-x="1105" 
d="M82 66l63 256q69 -36 161.5 -61t185.5 -25q105 0 162 40t57 109q0 64 -52.5 107t-179.5 86q-381 133 -381 409q0 181 142.5 297.5t380.5 116.5q205 0 352 -70l-70 -250q-130 66 -287 66q-96 0 -148 -38.5t-52 -94.5q0 -62 55 -101t201 -94q184 -69 270 -167.5t86 -243.5
q0 -88 -34 -164.5t-100.5 -136t-174.5 -93.5t-246 -34q-112 0 -219.5 25.5t-171.5 60.5zM678 1456h-250l170 252h330z" />
    <glyph glyph-name="sacute" unicode="&#x15b;" horiz-adv-x="888" 
d="M68 49l55 221q46 -28 124 -50.5t144 -22.5q133 0 133 82q0 40 -29.5 63.5t-115.5 52.5q-290 100 -287 301q0 143 112.5 236.5t295.5 93.5q164 0 280 -59l-53 -215q-40 22 -99.5 39.5t-117.5 17.5q-56 0 -87.5 -21.5t-31.5 -58.5q0 -36 34 -60t128 -57q140 -49 204 -124
t66 -185q0 -146 -111.5 -236t-320.5 -90q-190 0 -323 72zM322 1126l176 312h286l-249 -312h-213z" />
    <glyph glyph-name="Scircumflex" unicode="&#x15c;" horiz-adv-x="1105" 
d="M473 -20q-112 0 -219.5 25.5t-171.5 60.5l63 256q69 -36 161.5 -61t185.5 -25q105 0 162 40t57 109q0 64 -52.5 107t-179.5 86q-381 133 -381 409q0 181 142.5 297.5t380.5 116.5q205 0 352 -70l-70 -250q-130 66 -287 66q-96 0 -148 -38.5t-52 -94.5q0 -62 55 -101
t201 -94q184 -69 270 -167.5t86 -243.5q0 -88 -34 -164.5t-100.5 -136t-174.5 -93.5t-246 -34zM453 1456h-217l202 252h236l207 -252h-219l-103 127h-4z" />
    <glyph glyph-name="scircumflex" unicode="&#x15d;" horiz-adv-x="888" 
d="M391 -23q-190 0 -323 72l55 221q46 -28 124 -50.5t144 -22.5q133 0 133 82q0 40 -29.5 63.5t-115.5 52.5q-290 100 -287 301q0 143 112.5 236.5t295.5 93.5q164 0 280 -59l-53 -215q-40 22 -99.5 39.5t-117.5 17.5q-56 0 -87.5 -21.5t-31.5 -58.5q0 -36 34 -60t128 -57
q140 -49 204 -124t66 -185q0 -146 -111.5 -236t-320.5 -90zM143 1126l203 312h211l203 -312h-203l-104 179h-4l-103 -179h-203z" />
    <glyph glyph-name="Scedilla" unicode="&#x15e;" horiz-adv-x="1105" 
d="M82 66l63 256q69 -36 161.5 -61t185.5 -25q105 0 162 40t57 109q0 64 -52.5 107t-179.5 86q-381 133 -381 409q0 181 142.5 297.5t380.5 116.5q205 0 352 -70l-70 -250q-130 66 -287 66q-96 0 -148 -38.5t-52 -94.5q0 -62 55 -101t201 -94q184 -69 270 -167.5t86 -243.5
q0 -154 -100 -266.5t-293 -147.5l-45 -82q61 -8 104 -49t43 -99q0 -93 -71 -137.5t-177 -44.5q-101 0 -165 41l41 115q58 -33 112 -33q31 0 51.5 13t20.5 40q0 63 -160 74l74 148h-6q-90 0 -199 25t-176 61z" />
    <glyph glyph-name="scedilla" unicode="&#x15f;" horiz-adv-x="888" 
d="M66 49l57 221q46 -28 124 -50.5t144 -22.5q133 0 133 82q0 40 -29.5 63.5t-115.5 52.5q-287 99 -287 301q2 144 113.5 237t294.5 93q164 0 280 -59l-53 -215q-40 22 -99.5 39.5t-117.5 17.5q-56 0 -87.5 -21.5t-31.5 -58.5q0 -36 34 -60t128 -57q141 -49 205.5 -123.5
t64.5 -185.5q0 -120 -77 -203t-224 -110l-45 -80q61 -8 104.5 -49t43.5 -101q0 -93 -70.5 -135.5t-179.5 -42.5q-97 0 -164 41l41 115q58 -33 113 -33q30 0 50.5 13t20.5 40q0 63 -160 74l76 148h-4q-54 0 -133.5 16.5t-148.5 52.5z" />
    <glyph glyph-name="Scaron" unicode="&#x160;" horiz-adv-x="1169" 
d="M664 1890h143l-90 -252h-264l-91 252h144l78 -217zM1116 1235h-172q0 131 -123 131h-473q-52 0 -88.5 -36t-36.5 -89v-248q0 -53 36.5 -89t88.5 -36h520q101 0 173.5 -72t72.5 -173v-377q0 -101 -72.5 -173.5t-173.5 -72.5h-569q-101 0 -173.5 73.5t-72.5 174.5v51h170
q0 -59 26.5 -94t98.5 -35h473q51 0 87 36t38 87v280q0 51 -37 88t-88 37h-520q-103 0 -175.5 72.5t-72.5 173.5v346q0 101 72.5 173.5t173.5 72.5h569q101 0 173.5 -72.5t74.5 -173.5v-55z" />
    <glyph glyph-name="scaron" unicode="&#x161;" horiz-adv-x="1011" 
d="M266 408q-70 15 -120.5 62t-72.5 107.5t-18.5 128t33 124t92.5 93.5t150 38h358q122 -1 195 -79.5t73 -195.5v-24h-170v6q0 120 -118 125h-340q-48 0 -78.5 -33t-30.5 -80q0 -48 30 -79.5t79 -31.5l360 -2q25 0 37 -2q79 -13 134.5 -61t79 -110t19.5 -132t-34 -128
t-92 -96t-144 -38h-358q-142 0 -208.5 81.5t-66.5 223.5h168q0 -60 33 -98.5t92 -38.5h328q51 0 85 33.5t34 83.5q0 44 -30.5 76.5t-76.5 37.5q-72 7 -123 7q-35 0 -104 -2.5t-103 -2.5h-28q-32 0 -64 7zM381 1065l-90 252h145l76 -215l76 215h145l-90 -252h-262z" />
    <glyph glyph-name="uni0162" unicode="&#x162;" horiz-adv-x="1122" 
d="M31 1118v262h1061v-262h-377v-1118h-312v1118h-372zM346 -362q56 10 95.5 42.5t39.5 81.5q0 58 -59 121l215 37q34 -26 57 -68.5t23 -93.5q0 -121 -90.5 -185t-233.5 -69z" />
    <glyph glyph-name="uni0163" unicode="&#x163;" horiz-adv-x="751" 
d="M35 772v229h133v187l305 84v-271h223v-229h-223v-362q0 -93 28 -135t95 -42q48 0 92 9l2 -236q-72 -26 -201 -26q-174 0 -247.5 100.5t-73.5 281.5v410h-133zM211 -365q56 10 95.5 43t39.5 82q0 58 -59 121l215 37q34 -26 57 -68.5t23 -93.5q0 -121 -90.5 -185
t-233.5 -69z" />
    <glyph glyph-name="Tcaron" unicode="&#x164;" horiz-adv-x="1280" 
d="M717 1890h145l-90 -252h-264l-90 252h145l78 -215zM53 1536h1174v-170h-502v-1366h-170v1325l98 29v12h-600v170z" />
    <glyph glyph-name="tcaron" unicode="&#x165;" horiz-adv-x="1130" 
d="M520 1450h-20v86h20q63 0 105.5 -42t42.5 -105q0 -75 -42 -127t-106 -52h-20v39q28 -1 47.5 15t26.5 41t9.5 40.5t2.5 28.5q0 41 -14 58.5t-52 17.5zM909 362h168v-88q0 -131 -73 -202.5t-191 -71.5h-326q-66 0 -118.5 23.5t-83.5 62.5t-46.5 85.5t-13.5 94.5v525h-172
v170h271v12l-99 31v532h170v-575h539v-170h-539v-506q0 -117 125 -117h264q125 0 125 113v81z" />
    <glyph glyph-name="Tbar" unicode="&#x166;" horiz-adv-x="1122" 
d="M31 1380h1061v-262h-377v-340h235v-184h-235v-594h-312v594h-237v184h237v340h-372v262z" />
    <glyph glyph-name="tbar" unicode="&#x167;" horiz-adv-x="751" 
d="M35 772v229h133v187l305 84v-271h223v-229h-223v-143h170v-164h-170v-78q0 -81 29.5 -117.5t93.5 -36.5q48 0 92 9l2 -236q-72 -26 -201 -26q-174 0 -247.5 100.5t-73.5 281.5v103h-127v164h127v143h-133z" />
    <glyph glyph-name="Utilde" unicode="&#x168;" horiz-adv-x="1396" 
d="M135 1380h311v-792q0 -178 65 -269.5t185 -91.5q254 0 254 361v792h312v-774q0 -314 -150 -471.5t-426 -157.5q-267 0 -409 155.5t-142 477.5v770zM412 1464q-3 126 39.5 193t117.5 67q65 0 131 -41q66 -38 91 -38q26 0 37.5 18t17.5 70h139q3 -134 -37.5 -195
t-122.5 -61q-61 0 -133 39q-7 4 -20 11.5t-19 10.5t-15.5 7t-17.5 5.5t-16 1.5q-43 0 -49 -88h-143z" />
    <glyph glyph-name="utilde" unicode="&#x169;" horiz-adv-x="1193" 
d="M121 414v587h311v-538q0 -234 158 -234q72 0 120 52.5t48 124.5v595h311v-679q0 -154 8 -322h-270l-14 141h-7q-17 -27 -41 -52t-61.5 -52t-92 -43.5t-118.5 -16.5q-162 0 -257 107.5t-95 329.5zM305 1141q-4 128 42 199t126 71q53 0 133 -41q9 -5 24.5 -13.5t24 -13
t19.5 -8.5t20 -4q26 0 38 19t16 71h143q8 -262 -168 -262q-12 0 -23 1t-22.5 4t-19.5 5.5t-20.5 7.5t-18 7.5t-19.5 9t-18 8.5q-7 4 -23 13t-21.5 11.5t-15 5.5t-18.5 3q-45 0 -51 -94h-148z" />
    <glyph glyph-name="Umacron" unicode="&#x16a;" horiz-adv-x="1396" 
d="M135 610v770h311v-792q0 -178 65 -269.5t185 -91.5q254 0 254 361v792h312v-774q0 -314 -150 -471.5t-426 -157.5q-267 0 -409 155.5t-142 477.5zM434 1503v166h531v-166h-531z" />
    <glyph glyph-name="umacron" unicode="&#x16b;" horiz-adv-x="1193" 
d="M121 414v587h311v-538q0 -234 158 -234q72 0 120 52.5t48 124.5v595h311v-679q0 -154 8 -322h-270l-14 141h-7q-17 -27 -41 -52t-61.5 -52t-92 -43.5t-118.5 -16.5q-162 0 -257 107.5t-95 329.5zM854 1192h-512v172h512v-172z" />
    <glyph glyph-name="Ubreve" unicode="&#x16c;" horiz-adv-x="1286" 
d="M645 1804v25h96v-25q0 -70 -48.5 -118t-119.5 -48h-36q-70 0 -116 47.5t-46 118.5v25h96v-25q0 -42 25 -57.5t73 -15.5h-24q49 0 74.5 16t25.5 57zM948 334v1202h168v-1262q-3 -119 117 -104v-170q-38 -1 -67.5 1.5t-60 14t-50 32.5t-31 58t-8.5 89l49 170h-14l-74 -113
q-65 -82 -120 -132.5t-133 -85t-169 -34.5q-105 0 -205.5 49.5t-171.5 130.5q-123 145 -123 332l-2 1024h170v-969q2 -139 78.5 -249.5t204.5 -149.5q74 -15 140 -5t120 33.5t94 53t62.5 52t25.5 32.5zM1116 293v2v-2z" />
    <glyph glyph-name="ubreve" unicode="&#x16d;" horiz-adv-x="1193" 
d="M551 1227v26h96v-24q0 -71 -47.5 -118.5t-118.5 -47.5h-39q-70 0 -115.5 47.5t-45.5 118.5v24h96v-26q0 -74 100 -74h-24q98 0 98 74zM911 209q0 -17 11 -29t28 -12h76v-168h-94q-78 0 -134.5 56t-56.5 134l47 209h-12l-47 -80q-89 -146 -136 -199q-91 -101 -219 -116
q-73 -9 -169 6q-89 15 -147 92.5t-58 173.5v685h170v-668q0 -51 36.5 -88t88.5 -37h14q63 0 127.5 24.5t110 55.5t91 75t65.5 67.5t38 47.5v523h170v-17v-735z" />
    <glyph glyph-name="Uring" unicode="&#x16e;" horiz-adv-x="1286" 
d="M623 2019q70 0 115.5 -47.5t45.5 -118.5v-24v-25q0 -70 -48 -118t-118 -48h-38q-70 0 -116 47.5t-46 118.5v25v24q0 71 48 118.5t120 47.5h37zM688 1804v25v24q0 73 -86 76q-88 -3 -88 -76v-24v-25q0 -39 22.5 -55t65.5 -18q86 3 86 73zM948 334v1202h168v-1262
q-3 -119 117 -104v-170q-38 -1 -67.5 1.5t-60 14t-50 32.5t-31 58t-8.5 89l49 170h-14l-74 -113q-65 -82 -120 -132.5t-133 -85t-169 -34.5q-105 0 -205.5 49.5t-171.5 130.5q-123 145 -123 332l-2 1024h170v-969q2 -139 78.5 -249.5t204.5 -149.5q74 -15 140 -5t120 33.5
t94 53t62.5 52t25.5 32.5zM1116 293v2v-2z" />
    <glyph glyph-name="uring" unicode="&#x16f;" horiz-adv-x="1132" 
d="M551 1444q71 0 117.5 -47.5t46.5 -118.5v-25v-24q0 -70 -48.5 -118t-119.5 -48h-37q-70 0 -116 47.5t-46 118.5v24v25q0 70 48 118t118 48h37zM618 1227v26v25q0 71 -88 74q-88 -3 -88 -74v-25v-26q0 -71 88 -74q88 3 88 74zM965 209q0 -17 11 -29t28 -12h75v-168h-94
q-78 0 -134 56t-56 134l47 209h-13l-47 -80q-89 -146 -136 -199q-91 -101 -219 -116q-73 -9 -169 6q-89 15 -147 92.5t-58 173.5v685h170v-668q0 -51 36.5 -88t88.5 -37h14q63 0 127.5 24.5t110 55.5t91.5 74.5t66 67.5t38 48v523h170v-17v-735z" />
    <glyph glyph-name="Uhungarumlaut" unicode="&#x170;" horiz-adv-x="1286" 
d="M55 512l-2 1024h170v-969q2 -139 78.5 -249.5t204.5 -149.5q39 -8 84 -8q71 0 140 23.5t114 55t72.5 58t31.5 37.5v1202h168v-1262q-3 -106 90 -106q17 0 27 2v-170h-25q-44 0 -76 7.5t-62 27.5t-44 60t-10 100l49 170h-14l-74 -113q-65 -82 -120 -132.5t-133 -85
t-169 -34.5q-135 0 -251 71.5t-182.5 189.5t-66.5 251zM352 1638l90 252h146l-90 -252h-146zM608 1638l90 252h146l-90 -252h-146z" />
    <glyph glyph-name="uhungarumlaut" unicode="&#x171;" horiz-adv-x="1132" 
d="M532 1315l-90 -252h-145l90 252h145zM791 1315l-91 -252h-145l90 252h146zM965 944v-735q0 -17 11 -29t28 -12h75v-168h-94q-78 0 -134 56t-56 134l47 209h-13l-47 -80q-89 -146 -136 -199q-91 -101 -219 -116q-73 -9 -169 6q-89 15 -147 92.5t-58 173.5v685h170v-668
q0 -51 36.5 -88t88.5 -37h14q63 0 127.5 24.5t110 55.5t91.5 74.5t66 67.5t38 48v523h170v-17z" />
    <glyph glyph-name="Uogonek" unicode="&#x172;" horiz-adv-x="1396" 
d="M135 608v772h311v-794q0 -178 64.5 -269.5t183.5 -91.5q256 0 256 361v794h312v-776q0 -257 -102.5 -408.5t-293.5 -195.5q-110 -101 -110 -178q0 -35 24.5 -55.5t59.5 -20.5q44 0 88 18l43 -145q-94 -65 -223 -65q-101 0 -156 48.5t-55 131.5q0 118 118 246h-12
q-244 9 -376 163t-132 465z" />
    <glyph glyph-name="uogonek" unicode="&#x173;" horiz-adv-x="1193" 
d="M473 -23q-162 0 -257 107.5t-95 329.5v587h311v-538q0 -234 158 -234q72 0 120 52.5t48 124.5v595h311v-679q0 -158 8 -322l-98 2q-45 -79 -45 -141q0 -51 31 -83t79 -32q56 0 91 14l43 -143q-39 -32 -96.5 -49t-112.5 -17q-108 0 -169 56t-61 164q0 15 1.5 31t5 32t7 30
t9 29.5t9.5 26.5t10.5 26t9.5 21.5l9 19.5t7 15l-14 139h-7q-17 -27 -41 -52t-61.5 -52t-92 -43.5t-118.5 -16.5z" />
    <glyph glyph-name="Wcircumflex" unicode="&#x174;" horiz-adv-x="1818" 
d="M31 1380h334l104 -567q18 -98 82 -483h4q28 181 90 487l117 563h332l110 -581q43 -226 74 -463h4q12 90 80 481l113 563h317l-356 -1380h-338l-117 594q-48 246 -66 426h-4q-44 -274 -80 -426l-131 -594h-342zM815 1454h-217l205 252h233l207 -252h-219l-102 127h-4z" />
    <glyph glyph-name="wcircumflex" unicode="&#x175;" horiz-adv-x="1554" 
d="M315 0l-292 1001h317l82 -411q44 -251 55 -328h6q8 52 19 103.5t30.5 130t22.5 92.5l107 413h245l101 -399q52 -207 73 -340h4q19 153 60 342l84 397h305l-307 -1001h-291l-94 350q-38 136 -66 314h-4q-25 -171 -63 -312l-101 -352h-293zM672 1126h-203l205 312h209
l202 -312h-202l-103 179h-4z" />
    <glyph glyph-name="Ycircumflex" unicode="&#x176;" horiz-adv-x="1234" 
d="M455 565l-437 815h359l139 -331q67 -155 107 -265h4q43 119 104 265l139 331h351l-455 -805v-575h-311v565zM295 1454l205 252h233l207 -252h-219l-103 127h-4l-102 -127h-217z" />
    <glyph glyph-name="ycircumflex" unicode="&#x177;" horiz-adv-x="1071" 
d="M12 1001h346l150 -493q36 -127 49 -186h8q18 84 43 188l125 491h332l-234 -659q-92 -257 -153 -377q-161 -319 -392 -395q-51 -17 -106 -23l-67 263q66 14 135 53q41 24 93 78.5t52 91.5q0 21 -12 51zM442 1126h-202l204 312h209l203 -312h-203l-102 179h-4z" />
    <glyph glyph-name="Ydieresis" unicode="&#x178;" horiz-adv-x="1345" 
d="M578 1761q14 -37 -3 -72.5t-55 -48.5q-37 -13 -72 4t-49 54q-13 37 4 73t54 48q37 14 73 -3t48 -55zM946 1761q13 -37 -3.5 -72t-53.5 -49q-37 -13 -73 4t-48 54q-14 37 3 73t54 48q37 14 72.5 -3t48.5 -55zM1087 1534h205l-534 -791v-743h-170l2 741l-537 793h205
l416 -614z" />
    <glyph glyph-name="Zacute" unicode="&#x179;" horiz-adv-x="1181" 
d="M49 0v168l658 946v8h-598v258h1001v-180l-643 -934v-8h653v-258h-1071zM610 1706h328l-250 -252h-250z" />
    <glyph glyph-name="zacute" unicode="&#x17a;" horiz-adv-x="960" 
d="M45 178l315 395q88 102 158 177v4h-438v247h819v-188l-301 -379q-13 -14 -40 -45.5t-42.5 -49.5t-38.5 -43t-43 -44v-4h481v-248h-870v178zM354 1126l174 312h289l-250 -312h-213z" />
    <glyph glyph-name="Zdotaccent" unicode="&#x17b;" horiz-adv-x="1181" 
d="M49 168l658 946v8h-598v258h1001v-180l-643 -934v-8h653v-258h-1071v168zM598 1460q-59 0 -100 41.5t-41 97.5q0 60 41.5 101t101.5 41q58 0 97.5 -41t39.5 -101q0 -57 -40 -98t-99 -41z" />
    <glyph glyph-name="zdotaccent" unicode="&#x17c;" horiz-adv-x="960" 
d="M915 0h-870v178l315 395q88 102 158 177v4h-438v247h819v-188l-301 -379q-13 -14 -40 -45.5t-42.5 -49.5t-38.5 -43t-43 -44v-4h481v-248zM342 1284q0 63 41.5 104.5t103.5 41.5q60 0 100 -41.5t40 -104.5q0 -59 -40.5 -101t-101.5 -42t-102 42t-41 101z" />
    <glyph glyph-name="Zcaron" unicode="&#x17d;" horiz-adv-x="1286" 
d="M53 1536h1178v-170l-907 -1133l-172 -51v-12h1081v-170h-1178v170l908 1130l172 54v12h-1082v170zM422 1890h145l76 -217l80 217h143l-90 -252h-264z" />
    <glyph glyph-name="zcaron" unicode="&#x17e;" horiz-adv-x="1013" 
d="M53 0v170l602 571l125 39v13h-727v168h908v-170l-605 -570l-129 -39v-12h734v-170h-908zM383 1065l-90 252h145l76 -215l76 215h145l-90 -252h-262z" />
    <glyph glyph-name="florin" unicode="&#x192;" horiz-adv-x="985" 
d="M932 1174h-168v67q0 52 -37 88.5t-88 36.5h-121q-49 0 -84.5 -33.5t-38.5 -81.5v-247l-98 -31v-12h635v-170h-537v-711q0 -101 -72.5 -173.5t-175.5 -72.5h-53v166q45 0 73 11.5t40 35.5t15 45.5t3 57.5v641h-172v170h172v299v6q3 113 83 190.5t192 77.5h157
q114 0 194.5 -80t80.5 -194v-86zM225 1266v-6v6z" />
    <glyph glyph-name="Ohorn" unicode="&#x1a0;" horiz-adv-x="1468" 
d="M72 682q0 206 82 370t236 258.5t353 94.5q138 0 252 -43q23 -8 67.5 -28t78 -32t57.5 -12q76 0 76 84q0 73 -45 150l223 39q49 -104 49 -209q0 -98 -55.5 -160.5t-161.5 -65.5q115 -176 115 -423q0 -338 -185 -533t-493 -195q-199 0 -348 94.5t-225 253t-76 357.5z
M401 690q0 -202 91 -333.5t245 -131.5q103 0 179 61.5t114.5 167t38.5 240.5q0 127 -38 231t-114.5 168t-179.5 64q-104 0 -181.5 -64t-116 -168.5t-38.5 -234.5z" />
    <glyph glyph-name="ohorn" unicode="&#x1a1;" horiz-adv-x="1204" 
d="M68 494q0 244 146 388t388 144q95 0 184 -29q17 -5 51.5 -20t63.5 -25t51 -10q73 0 70 74q0 69 -43 143l219 37q45 -85 45 -192q0 -94 -52 -151.5t-147 -66.5q70 -120 70 -274q0 -133 -44.5 -237.5t-119.5 -168t-168 -96.5t-196 -33q-226 0 -372 140t-146 377zM594 803
q-70 0 -118 -46t-67.5 -111.5t-19.5 -143.5q0 -133 54 -217t151 -84q90 0 144.5 83t54.5 220q0 78 -19.5 143.5t-66 110.5t-113.5 45z" />
    <glyph glyph-name="Uhorn" unicode="&#x1af;" horiz-adv-x="1490" 
d="M686 -23q-267 0 -409 155.5t-142 477.5v770h311v-792q0 -178 65 -269.5t185 -91.5q254 0 254 361v792h238q60 0 83 19t23 61q0 62 -43 137l219 35q46 -90 46 -192q0 -94 -55 -151t-165 -70l-34 -5v-608q0 -314 -150 -471.5t-426 -157.5z" />
    <glyph glyph-name="uhorn" unicode="&#x1b0;" horiz-adv-x="1193" 
d="M121 1001h311v-538q0 -234 158 -234q72 0 120 52.5t48 124.5v595h188q109 0 109 84q0 61 -45 136l219 36q45 -88 45 -186q0 -90 -53 -145t-136 -66h-16v-538q0 -154 8 -322h-270l-14 141h-7q-17 -27 -41 -52t-61.5 -52t-92 -43.5t-118.5 -16.5q-162 0 -257 107t-95 328
v589z" />
    <glyph glyph-name="Aringacute" unicode="&#x1fa;" horiz-adv-x="1343" 
d="M37 0l420 1380h409l430 -1380h-338l-104 354h-397l-99 -354h-321zM674 1419q-100 0 -159.5 52.5t-59.5 130.5q0 77 58.5 129.5t162.5 52.5t160.5 -51.5t56.5 -130.5t-59 -131t-160 -52zM584 881l-82 -293h305l-86 293q-26 84 -70 266h-4q-5 -19 -27.5 -119t-35.5 -147z
M784 1821h-260l221 188h340zM586 1602q0 -32 23 -55t63 -23q42 0 66 22t24 58q0 34 -25 58t-67 24q-41 0 -62.5 -24t-21.5 -60z" />
    <glyph glyph-name="aringacute" unicode="&#x1fb;" horiz-adv-x="1081" 
d="M59 285q0 190 157 286.5t431 96.5v12q0 53 -39.5 92t-142.5 39q-73 0 -148 -21.5t-129 -54.5l-57 201q162 90 389 90q121 0 208.5 -33.5t136.5 -95t71 -136.5t22 -169v-348q0 -167 19 -244h-281l-18 100h-6q-101 -123 -289 -123q-146 0 -235 91t-89 217zM543 1075
q-107 0 -171.5 56.5t-64.5 142.5q0 90 63 147.5t175 57.5q109 0 170 -57t61 -148q0 -86 -64 -142.5t-169 -56.5zM367 315q0 -58 34.5 -88t90.5 -30q70 0 117.5 49t47.5 119v108q-290 0 -290 -158zM412 1524l229 239h287l-301 -239h-215zM451 1274q0 -38 24.5 -67t65.5 -29
q44 0 70 28.5t26 69.5t-25.5 70.5t-70.5 29.5q-42 0 -66 -30.5t-24 -71.5z" />
    <glyph glyph-name="AEacute" unicode="&#x1fc;" horiz-adv-x="1777" 
d="M6 0l588 1380h1051v-256h-568l37 -293h522v-253h-483l43 -322h524l-2 -256h-790l-49 377h-402l-151 -377h-320zM569 627h275l-41 334q-14 109 -25 200h-6q-12 -36 -36.5 -105.5t-33.5 -97.5zM811 1454l172 252h328l-250 -252h-250z" />
    <glyph glyph-name="aeacute" unicode="&#x1fd;" horiz-adv-x="1644" 
d="M59 291q0 180 159.5 275.5t432.5 95.5v26q0 14 -8 31.5t-27 39t-60 36t-97 14.5q-71 0 -142.5 -22.5t-123.5 -53.5l-62 197q170 94 354 94q236 0 330 -162h6q124 162 342 162q107 0 190 -43t132 -115t73.5 -158t24.5 -180q0 -12 -8 -112h-633q3 -95 77 -151t193 -56
q156 0 281 53l43 -209q-148 -76 -369 -76q-126 0 -228.5 47t-154.5 132h-6q-132 -179 -372 -179q-159 0 -253 90.5t-94 223.5zM885 1126h-213l174 312h289zM659 469h-12q-130 0 -206 -37.5t-76 -118.5q0 -56 36 -86t91 -30q56 0 97.5 29.5t61.5 74.5q8 24 8 64v104z
M1126 821q-88 0 -136 -63.5t-50 -130.5h356q1 28 -6 58t-24 62t-53.5 53t-86.5 21z" />
    <glyph glyph-name="Oslashacute" unicode="&#x1fe;" horiz-adv-x="1447" 
d="M856 1890l-92 -252h-146l93 252h145zM1395 1536l-168 -225q73 -118 73 -271v-518q0 -143 -64 -262.5t-178.5 -189.5t-256.5 -70h-156q-174 0 -313 104l-76 -104h-203l164 221q-96 140 -96 301v518q0 141 70.5 255.5t190 177.5t263.5 63h156q187 0 317 -102l76 102h201z
M291 995v-426q0 -108 41 -192l680 913q-96 78 -256 78h-68q-181 0 -289 -98.5t-108 -274.5zM1135 569v426q0 86 -25 156l-672 -903q104 -80 250 -80h68q176 0 277.5 110t101.5 291z" />
    <glyph glyph-name="oslashacute" unicode="&#x1ff;" horiz-adv-x="1419" 
d="M1366 961l-209 -185q8 -27 8 -61v-469q0 -101 -72 -173.5t-173 -72.5h-420q-87 0 -160 57l-64 -57h-223l207 182q-6 24 -6 51v482q0 101 72.5 173.5t173.5 72.5h420q89 0 159 -60l66 60h221zM420 664v-340l520 454q-34 17 -74 17h-315q-63 0 -97 -34t-34 -97zM997 297
v338l-520 -457q28 -14 74 -14h315q64 0 97.5 34.5t33.5 98.5zM872 1319l-92 -254h-145l92 254h145z" />
    <glyph glyph-name="uni0218" unicode="&#x218;" horiz-adv-x="1105" 
d="M473 -20q-112 0 -219.5 25.5t-171.5 60.5l63 256q69 -36 161.5 -61t185.5 -25q105 0 162 40t57 109q0 64 -52.5 107t-179.5 86q-381 133 -381 409q0 181 142.5 297.5t380.5 116.5q205 0 352 -70l-70 -250q-130 66 -287 66q-96 0 -148 -38.5t-52 -94.5q0 -62 55 -101
t201 -94q184 -69 270 -167.5t86 -243.5q0 -88 -34 -164.5t-100.5 -136t-174.5 -93.5t-246 -34zM360 -362q56 10 96 42.5t40 81.5q0 57 -60 121l215 37q34 -26 57 -68.5t23 -93.5q0 -121 -90.5 -185t-234.5 -69z" />
    <glyph glyph-name="uni0219" unicode="&#x219;" horiz-adv-x="888" 
d="M391 -23q-190 0 -323 72l55 221q46 -28 124 -50.5t144 -22.5q133 0 133 82q0 40 -29.5 63.5t-115.5 52.5q-290 100 -287 301q0 143 112.5 236.5t295.5 93.5q164 0 280 -59l-53 -215q-40 22 -99.5 39.5t-117.5 17.5q-56 0 -87.5 -21.5t-31.5 -58.5q0 -36 34 -60t128 -57
q140 -49 204 -124t66 -185q0 -146 -111.5 -236t-320.5 -90zM250 -362q56 10 95.5 42.5t39.5 81.5q0 58 -59 121l215 37q34 -26 57 -68.5t23 -93.5q0 -121 -90.5 -185t-233.5 -69z" />
    <glyph glyph-name="uni021A" unicode="&#x21a;" horiz-adv-x="1122" 
d="M31 1118v262h1061v-262h-377v-1118h-312v1118h-372zM346 -362q56 10 95.5 42.5t39.5 81.5q0 58 -59 121l215 37q34 -26 57 -68.5t23 -93.5q0 -121 -90.5 -185t-233.5 -69z" />
    <glyph glyph-name="uni021B" unicode="&#x21b;" horiz-adv-x="751" 
d="M35 772v229h133v187l305 84v-271h223v-229h-223v-362q0 -93 28 -135t95 -42q48 0 92 9l2 -236q-72 -26 -201 -26q-174 0 -247.5 100.5t-73.5 281.5v410h-133zM211 -365q56 10 95.5 43t39.5 82q0 58 -59 121l215 37q34 -26 57 -68.5t23 -93.5q0 -121 -90.5 -185
t-233.5 -69z" />
    <glyph glyph-name="uni021C" unicode="&#x21c;" horiz-adv-x="1099" 
d="M76 1298q78 46 185 76.5t218 30.5q188 0 306.5 -87.5t117.5 -234.5q0 -107 -66.5 -193.5t-177.5 -135.5v-4q158 -23 260 -120t101 -253q0 -128 -69 -243.5t-186 -198t-276 -133.5t-335 -58l-35 238q63 6 137 25t151.5 52.5t140 76.5t102 102t38.5 122q0 80 -61 138.5
t-178 58.5q-37 0 -98.5 -9.5t-108.5 -25.5l-35 209q101 19 186 57.5t143 101t58 134.5q0 61 -51 100t-133 41q-131 0 -275 -71z" />
    <glyph glyph-name="uni021D" unicode="&#x21d;" horiz-adv-x="970" 
d="M39 918q69 47 173 76.5t212 29.5q181 0 286 -79t105 -216q0 -177 -213 -268v-4q144 -22 226.5 -107t82.5 -215q0 -124 -67 -229.5t-179 -176.5t-257.5 -112t-303.5 -45l-34 238q29 0 65.5 3.5t88 12.5t100 23t97.5 37t85 52.5t59 72t23 93.5q0 66 -47 114t-158 48
q-63 0 -176 -33l-41 211q348 73 348 222q0 58 -45 89t-127 31q-106 0 -246 -71z" />
    <glyph glyph-name="uni0232" unicode="&#x232;" horiz-adv-x="1234" 
d="M18 1380h359l139 -331q67 -155 107 -265h4q43 119 104 265l139 331h351l-455 -805v-575h-311v565zM352 1503v166h531v-166h-531z" />
    <glyph glyph-name="uni0233" unicode="&#x233;" horiz-adv-x="1071" 
d="M381 84l-369 917h346l150 -493q36 -127 49 -186h8q18 84 43 188l125 491h332l-234 -659q-92 -257 -153 -377q-161 -319 -392 -395q-51 -17 -106 -23l-67 263q66 14 135 53q41 24 93 78.5t52 91.5q0 21 -12 51zM793 1192h-512v172h512v-172z" />
    <glyph glyph-name="circumflex" unicode="&#x2c6;" 
d="M0 1126l205 312h209l202 -312h-202l-103 179h-4l-104 -179h-203z" />
    <glyph glyph-name="caron" unicode="&#x2c7;" 
d="M-2 1438h203l104 -178h4l103 178h204l-204 -312h-211z" />
    <glyph glyph-name="uni02C9" unicode="&#x2c9;" 
d="M53 1364h512v-172h-512v172z" />
    <glyph glyph-name="breve" unicode="&#x2d8;" 
d="M23 1417h161q17 -125 121 -125q59 0 90.5 35.5t34.5 89.5h162q-2 -133 -76.5 -212t-210.5 -79q-137 0 -208.5 80.5t-73.5 210.5z" />
    <glyph glyph-name="dotaccent" unicode="&#x2d9;" 
d="M104 1284q0 63 42 104.5t104 41.5q60 0 99.5 -41.5t39.5 -104.5q0 -59 -40 -101t-101 -42t-102.5 42t-41.5 101z" />
    <glyph glyph-name="ring" unicode="&#x2da;" 
d="M53 1303q0 90 63.5 147t176.5 57q107 0 168 -56.5t61 -145.5q0 -88 -63.5 -144.5t-167.5 -56.5q-108 0 -173 56t-65 143zM197 1303q0 -38 25.5 -67.5t66.5 -29.5q43 0 68.5 29t25.5 70t-25.5 70.5t-70.5 29.5q-42 0 -66 -30t-24 -72z" />
    <glyph glyph-name="ogonek" unicode="&#x2db;" 
d="M88 -231q0 64 26.5 129.5t53.5 103.5h166l-8 -16q-8 -15 -10 -19.5t-9 -19t-10 -23.5t-7 -22t-5.5 -25t-1.5 -24q0 -47 29 -78t79 -31q39 0 92 16l43 -145q-39 -31 -97 -47.5t-112 -16.5q-108 0 -168.5 55.5t-60.5 162.5z" />
    <glyph glyph-name="tilde" unicode="&#x2dc;" 
d="M16 1141q-4 128 42 199t126 71q49 0 133 -41q10 -5 29.5 -16.5t32.5 -17t24 -5.5q26 0 38 19t16 71h143q8 -262 -168 -262q-12 0 -23 1t-22.5 4t-19.5 5.5t-20.5 7.5t-18 7.5t-19.5 9t-18 8.5q-9 5 -23.5 13.5t-20 11t-15 5.5t-19.5 3q-43 0 -49 -94h-148z" />
    <glyph glyph-name="hungarumlaut" unicode="&#x2dd;" 
d="M350 1130l131 306h246l-201 -306h-176zM-4 1130l129 306h246l-199 -306h-176z" />
    <glyph glyph-name="uni037E" unicode="&#x37e;" horiz-adv-x="567" 
d="M254 -225l-205 -19q89 344 107 570l313 10q-83 -304 -215 -561zM299 584q-84 0 -137 55.5t-53 142.5t53 143t139 56t139.5 -55.5t53.5 -143.5q0 -87 -53.5 -142.5t-141.5 -55.5z" />
    <glyph glyph-name="tonos" unicode="&#x384;" horiz-adv-x="620" 
d="M266 1438h275l-166 -312h-203z" />
    <glyph glyph-name="dieresistonos" unicode="&#x385;" horiz-adv-x="890" 
d="M485 1135h-159l43 358h229zM618 1282q0 55 36.5 92t90.5 37q55 0 91 -36.5t36 -92.5q0 -53 -36.5 -90t-92.5 -37q-53 0 -89 37t-36 90zM141 1155q-54 0 -91.5 37t-37.5 90q0 55 37.5 92t93.5 37q52 0 87.5 -36.5t35.5 -92.5q0 -53 -36 -90t-89 -37z" />
    <glyph glyph-name="Alphatonos" unicode="&#x386;" horiz-adv-x="1359" 
d="M51 0l422 1380h408l430 -1380h-336l-107 354h-397l-96 -354h-324zM600 881l-84 -293h305l-86 293q-11 35 -67 266h-6q-32 -148 -62 -266zM39 1024l4 356h250l-76 -356h-178z" />
    <glyph glyph-name="anoteleia" unicode="&#x387;" horiz-adv-x="567" 
d="M82 645q0 90 57.5 148.5t145.5 58.5q89 0 143.5 -57t56.5 -150q0 -91 -56 -149t-148 -58q-86 0 -142.5 59t-56.5 148z" />
    <glyph glyph-name="Epsilontonos" unicode="&#x388;" horiz-adv-x="1314" 
d="M358 0v1380h850v-256h-538v-286h508v-254h-508v-328h567v-256h-879zM0 1024l4 356h250l-76 -356h-178z" />
    <glyph glyph-name="Etatonos" unicode="&#x389;" horiz-adv-x="1632" 
d="M356 1380h314v-530h514v530h311v-1380h-311v578h-514v-578h-314v1380zM0 1024l4 356h250l-76 -356h-178z" />
    <glyph glyph-name="Iotatonos" unicode="&#x38a;" horiz-adv-x="804" 
d="M358 1380h312v-1380h-312v1380zM0 1024l4 356h250l-76 -356h-178z" />
    <glyph glyph-name="Omicrontonos" unicode="&#x38c;" horiz-adv-x="1622" 
d="M223 682q0 206 82.5 370t236.5 258.5t353 94.5q155 0 280.5 -55.5t206.5 -151t124.5 -222t43.5 -271.5q0 -338 -185 -533t-493 -195q-199 0 -348 94.5t-225 253t-76 357.5zM889 1157q-104 0 -181.5 -64t-116 -168.5t-38.5 -234.5q0 -202 91 -333.5t245 -131.5
q103 0 179 61.5t114.5 167t38.5 240.5q0 127 -37.5 231t-114 168t-180.5 64zM0 1024l4 356h250l-76 -356h-178z" />
    <glyph glyph-name="Upsilontonos" unicode="&#x38e;" horiz-adv-x="1595" 
d="M326 1135l49 258q98 -2 209.5 -48.5t191.5 -136.5q151 -171 178 -442h15q36 255 194 430q79 87 181.5 140.5t183.5 56.5l49 -265q-147 -40 -272 -193t-172 -353q-35 -143 -35 -283v-299h-312v301q0 103 -12 202.5t-44.5 207.5t-82.5 193t-132.5 148t-188.5 83zM178 1024
h-178l4 356h250z" />
    <glyph glyph-name="Omegatonos" unicode="&#x38f;" horiz-adv-x="1667" 
d="M821 0h-612v236h272v8q-102 80 -173.5 212t-71.5 300q0 134 50.5 253t139 206.5t216.5 138.5t276 51q154 0 281 -52.5t208.5 -140.5t125.5 -200t44 -234q0 -95 -23 -182t-62 -153t-79 -113t-86 -86v-8h275v-236h-609v182q262 197 262 535q0 118 -40.5 217t-120 161
t-183.5 62q-156 0 -254 -127t-98 -313q0 -177 74.5 -321.5t187.5 -213.5v-182zM0 1024l4 356h250l-76 -356h-178z" />
    <glyph glyph-name="iotadieresistonos" unicode="&#x390;" horiz-adv-x="573" 
d="M125 283v718h311v-688q0 -53 19.5 -75.5t62.5 -22.5h12l-16 -217q-47 -21 -131 -21q-63 0 -109 14.5t-80.5 49t-51.5 94.5t-17 148zM340 1116h-158l43 354h228zM598 1133q-53 0 -89 37t-36 90q0 55 36.5 90.5t90.5 35.5t89.5 -35.5t35.5 -90.5q0 -53 -36 -90t-91 -37z
M-2 1133q-54 0 -90.5 37t-36.5 90q0 55 37 90.5t92 35.5q53 0 88 -35.5t35 -90.5q0 -53 -36 -90t-89 -37z" />
    <glyph glyph-name="Alpha" unicode="&#x391;" horiz-adv-x="1343" 
d="M37 0l420 1380h409l430 -1380h-338l-106 354h-395l-99 -354h-321zM584 881l-82 -293h305l-86 293q-26 84 -70 266h-4q-5 -19 -27.5 -119t-35.5 -147z" />
    <glyph glyph-name="Beta" unicode="&#x392;" horiz-adv-x="1236" 
d="M135 1362q170 29 404 29q146 0 240 -17.5t169 -60.5q75 -40 119.5 -110.5t44.5 -162.5q0 -95 -57 -172t-170 -120v-5q123 -32 198.5 -120.5t75.5 -216.5q0 -179 -143 -295q-156 -125 -543 -125q-198 0 -338 20v1356zM444 221q31 -4 121 -4q116 0 191 49.5t75 151.5
q0 66 -38.5 110t-99.5 63t-142 19h-107v-389zM444 1155v-321h103q122 0 187 46t65 124t-57.5 118.5t-163.5 40.5q-84 0 -134 -8z" />
    <glyph glyph-name="Gamma" unicode="&#x393;" horiz-adv-x="987" 
d="M137 1380h836v-262h-524v-1118h-312v1380z" />
    <glyph glyph-name="uni0394" unicode="&#x394;" horiz-adv-x="1327" 
d="M33 0v156l442 1224h379l432 -1222v-158h-1253zM567 850l-196 -594h559l-195 578q-54 166 -84 294h-8q-34 -146 -76 -278z" />
    <glyph glyph-name="Epsilon" unicode="&#x395;" horiz-adv-x="1093" 
d="M1016 0h-879v1380h850v-256h-538v-286h507v-254h-507v-328h567v-256z" />
    <glyph glyph-name="Zeta" unicode="&#x396;" horiz-adv-x="1181" 
d="M49 0v168l658 946v8h-598v258h1001v-180l-643 -934v-8h653v-258h-1071z" />
    <glyph glyph-name="Eta" unicode="&#x397;" horiz-adv-x="1411" 
d="M449 0h-312v1380h312v-530h514v530h311v-1380h-311v578h-514v-578z" />
    <glyph glyph-name="Theta" unicode="&#x398;" horiz-adv-x="1472" 
d="M72 680q0 207 82.5 371.5t236.5 259t354 94.5q155 0 281 -55.5t207 -151t124.5 -222t43.5 -271.5q0 -336 -186 -532t-492 -196q-150 0 -274 54.5t-206 149.5t-126.5 223t-44.5 276zM399 688q0 -202 92 -332.5t248 -130.5q155 0 244.5 131t89.5 338q0 127 -38 231
t-115.5 168t-182.5 64q-156 0 -247 -134t-91 -335zM520 829h430v-251h-430v251z" />
    <glyph glyph-name="Iota" unicode="&#x399;" horiz-adv-x="583" 
d="M137 1380h312v-1380h-312v1380z" />
    <glyph glyph-name="Kappa" unicode="&#x39a;" horiz-adv-x="1257" 
d="M444 0h-309v1380h309v-610h5q42 72 96 152l311 458h385l-457 -587l480 -793h-363l-340 596l-117 -145v-451z" />
    <glyph glyph-name="Lambda" unicode="&#x39b;" horiz-adv-x="1327" 
d="M35 0l422 1380h403l436 -1380h-340l-237 827q-11 43 -23.5 93.5t-26.5 110t-22 91.5h-4q-2 -9 -24.5 -124t-36.5 -171l-220 -827h-327z" />
    <glyph glyph-name="Mu" unicode="&#x39c;" horiz-adv-x="1732" 
d="M393 0h-289l89 1380h415l135 -460q70 -250 117 -494h8q71 308 131 496l146 458h409l74 -1380h-303l-22 528q-13 360 -13 568h-4q-68 -266 -156 -535l-167 -538h-244l-148 532q-68 248 -125 541h-4q-10 -323 -22 -572z" />
    <glyph glyph-name="Nu" unicode="&#x39d;" horiz-adv-x="1413" 
d="M135 1380h365l286 -506q122 -216 226 -473h4q-25 253 -25 578v401h287v-1380h-328l-295 532q-149 267 -239 488h-8q14 -258 14 -604v-416h-287v1380z" />
    <glyph glyph-name="Xi" unicode="&#x39e;" horiz-adv-x="1175" 
d="M115 1380h956v-254h-956v254zM178 834h828v-252h-828v252zM86 256h1014v-256h-1014v256z" />
    <glyph glyph-name="Omicron" unicode="&#x39f;" horiz-adv-x="1468" 
d="M72 682q0 206 82 370t236 258.5t353 94.5q155 0 281 -55.5t207 -151t124.5 -222t43.5 -271.5q0 -338 -185 -533t-493 -195q-199 0 -348 94.5t-225 253t-76 357.5zM401 690q0 -202 91 -333.5t245 -131.5q103 0 179 61.5t114.5 167t38.5 240.5q0 127 -37.5 231t-114 168
t-180.5 64t-181.5 -64t-116 -168.5t-38.5 -234.5z" />
    <glyph glyph-name="Pi" unicode="&#x3a0;" horiz-adv-x="1366" 
d="M137 0v1380h1092v-1380h-311v1118h-469v-1118h-312z" />
    <glyph glyph-name="Rho" unicode="&#x3a1;" horiz-adv-x="1189" 
d="M135 1362q174 29 422 29q284 0 422 -111q68 -56 107.5 -138.5t39.5 -180.5q0 -99 -30.5 -179.5t-83 -134.5t-126 -90.5t-157 -53t-178.5 -16.5q-63 0 -107 9v-496h-309v1362zM444 1143v-408q36 -8 105 -8q125 0 196.5 59.5t71.5 163.5q0 96 -64 149.5t-182 53.5
q-89 0 -127 -10z" />
    <glyph glyph-name="Sigma" unicode="&#x3a3;" horiz-adv-x="1183" 
d="M459 264v-8h657v-256h-1055v176l410 508l-387 494v202h981v-256h-584v-6l324 -422z" />
    <glyph glyph-name="Tau" unicode="&#x3a4;" horiz-adv-x="1122" 
d="M31 1118v262h1061v-262h-377v-1118h-312v1118h-372z" />
    <glyph glyph-name="Upsilon" unicode="&#x3a5;" horiz-adv-x="1280" 
d="M18 1135l50 258q97 -2 208 -48.5t191 -136.5q151 -171 178 -442h14q36 254 195 430q79 87 181.5 140.5t183.5 56.5l49 -265q-147 -40 -272.5 -193t-172.5 -353q-35 -143 -35 -283v-299h-311v301q0 103 -12 202.5t-44.5 207.5t-82.5 193t-132.5 148t-187.5 83z" />
    <glyph glyph-name="Phi" unicode="&#x3a6;" horiz-adv-x="1607" 
d="M657 55q-116 14 -218.5 58.5t-186.5 119.5t-133 191.5t-49 259.5q0 119 36 221.5t95 174.5t137 126.5t159 84t165 40.5v107h290v-107q114 -14 217 -59.5t187 -121.5t134 -193.5t50 -260.5q0 -142 -49 -258.5t-132.5 -194t-188 -125t-222.5 -63.5v-112h-291v112zM950 1114
v-840q51 9 98 37t88.5 76t66 125.5t24.5 173.5q0 99 -24.5 179t-65.5 130.5t-88 80t-99 38.5zM383 684q0 -170 84 -279.5t192 -130.5v840q-50 -10 -97 -40.5t-88 -81t-66 -131t-25 -177.5z" />
    <glyph glyph-name="Chi" unicode="&#x3a7;" horiz-adv-x="1255" 
d="M33 0l399 698l-385 682h359l120 -252q61 -125 105 -229h4q37 99 94 229l117 252h356l-389 -673l410 -707h-361l-125 250q-25 48 -123 248h-4q-38 -106 -108 -248l-113 -250h-356z" />
    <glyph glyph-name="Psi" unicode="&#x3a8;" horiz-adv-x="1519" 
d="M618 377q-111 7 -203.5 40t-168 95t-118 164.5t-42.5 236.5v467h299v-419q0 -95 17 -162t50 -105.5t73 -57t93 -22.5v766h285v-768q51 4 90.5 25t73.5 66t52 126.5t18 196.5v354h299v-399q0 -151 -41.5 -266t-116 -185.5t-168 -108t-207.5 -44.5v-377h-285v377z" />
    <glyph glyph-name="uni03A9" unicode="&#x3a9;" horiz-adv-x="1523" 
d="M68 0v236h270v8q-101 81 -174 213t-74 299q0 135 50.5 254t139 206.5t216.5 138t276 50.5q154 0 281 -52t208.5 -140t126 -200t44.5 -235q0 -95 -23 -181t-62 -152t-79 -113.5t-86 -87.5v-8h276v-236h-608v182q117 88 189 223.5t71 313.5q0 118 -40.5 216.5t-120 160
t-183.5 61.5q-156 0 -254 -127t-98 -313q0 -165 76.5 -316.5t187.5 -218.5v-182h-610z" />
    <glyph glyph-name="Iotadieresis" unicode="&#x3aa;" horiz-adv-x="583" 
d="M449 0h-312v1380h312v-1380zM362 1602q0 60 40 99.5t100 39.5t98.5 -39.5t38.5 -99.5q0 -58 -39.5 -99t-99.5 -41q-59 0 -98.5 41t-39.5 99zM82 1462q-58 0 -98.5 41.5t-40.5 98.5q0 60 40.5 99.5t100.5 39.5q58 0 96.5 -39.5t38.5 -99.5q0 -58 -39 -99t-98 -41z" />
    <glyph glyph-name="Upsilondieresis" unicode="&#x3ab;" horiz-adv-x="1280" 
d="M477 301q0 103 -12 202.5t-44.5 207.5t-82.5 193t-132.5 148t-187.5 83l50 258q97 -2 208 -48.5t191 -136.5q151 -171 178 -442h14q36 254 195 430q79 87 181.5 140.5t183.5 56.5l49 -265q-147 -40 -272.5 -193t-172.5 -353q-35 -143 -35 -283v-299h-311v301zM719 1569
q0 60 39.5 99.5t99.5 39.5t98.5 -39.5t38.5 -99.5q0 -58 -39.5 -98.5t-99.5 -40.5q-59 0 -98 40.5t-39 98.5zM438 1430q-58 0 -98.5 41t-40.5 98q0 60 40.5 99.5t100.5 39.5q58 0 96.5 -39.5t38.5 -99.5q0 -58 -39 -98.5t-98 -40.5z" />
    <glyph glyph-name="alphatonos" unicode="&#x3ac;" horiz-adv-x="1193" 
d="M68 479q0 122 39 227t103.5 173t145.5 106.5t166 38.5q90 0 161.5 -39t113.5 -115h8q5 37 24 131h261q-27 -356 -27 -653q0 -137 82 -137h10l-18 -217q-34 -17 -107 -17q-176 0 -217 183h-6q-52 -89 -136.5 -136t-187.5 -47q-176 0 -295.5 138.5t-119.5 363.5zM383 494
q0 -117 52.5 -194t135.5 -77q65 0 117 55.5t66 131.5q6 53 6 100q0 59 -4 84q-14 86 -62 139t-114 53q-89 0 -143 -84.5t-54 -207.5zM494 1120l94 312h274l-166 -312h-202z" />
    <glyph glyph-name="epsilontonos" unicode="&#x3ad;" horiz-adv-x="958" 
d="M68 287q0 90 62.5 155t156.5 86v9q-82 28 -127 81.5t-45 126.5q0 114 113 197.5t323 83.5q203 0 336 -76l-53 -196q-104 55 -236 55q-80 0 -125 -26t-45 -68q0 -87 229 -90h99v-203h-99q-58 -1 -101 -6t-79 -15.5t-55 -30.5t-19 -48q0 -55 58 -84t141 -29q67 0 142 17.5
t128 43.5l43 -200q-76 -48 -182.5 -70.5t-212.5 -22.5q-86 0 -163 17t-143.5 51.5t-106 97t-39.5 144.5zM408 1120l94 312h274l-166 -312h-202z" />
    <glyph glyph-name="etatonos" unicode="&#x3ae;" horiz-adv-x="1200" 
d="M92 1001h275q31 -60 34 -139h7q39 63 117.5 112.5t191.5 49.5q161 0 259.5 -109.5t98.5 -322.5v-645q0 -271 21 -353h-295q-37 63 -37 355v606q0 217 -158 217q-80 0 -125 -57t-45 -137v-578h-311v682q0 224 -33 319zM496 1120l94 312h274l-166 -312h-202z" />
    <glyph glyph-name="iotatonos" unicode="&#x3af;" horiz-adv-x="573" 
d="M125 283v718h311v-688q0 -53 19 -75.5t61 -22.5h12l-14 -217q-47 -21 -131 -21q-63 0 -109 14.5t-80.5 49t-51.5 94.5t-17 148zM379 1122h-207l94 312h279z" />
    <glyph glyph-name="upsilondieresistonos" unicode="&#x3b0;" horiz-adv-x="1142" 
d="M109 668q0 248 -25 333h303q18 -20 25.5 -64t7.5 -130v-377q0 -96 45 -148.5t113 -52.5q64 0 106 52t59 132.5t17 186.5q0 118 -20.5 233t-41.5 168h291q31 -61 53.5 -163t22.5 -220q0 -98 -15.5 -186.5t-53.5 -173t-95 -146t-147 -98.5t-203 -37q-127 0 -225 46
t-157.5 145.5t-59.5 241.5v258zM446 1114l43 354h230l-115 -354h-158zM864 1133q-53 0 -89 37t-36 90q0 55 36.5 90.5t90.5 35.5t89.5 -35.5t35.5 -90.5q0 -53 -36 -90t-91 -37zM262 1133q-54 0 -90.5 37t-36.5 90q0 55 37 90.5t92 35.5q53 0 88 -35.5t35 -90.5
q0 -53 -36 -90t-89 -37z" />
    <glyph glyph-name="alpha" unicode="&#x3b1;" horiz-adv-x="1193" 
d="M483 -23q-176 0 -295.5 138.5t-119.5 363.5q0 122 39 227t103.5 173t145.5 106.5t166 38.5q90 0 161.5 -39t113.5 -115h8q5 37 24 131h261q-27 -356 -27 -653q0 -137 82 -137h10l-18 -217q-34 -17 -107 -17q-176 0 -217 183h-6q-52 -89 -136.5 -136t-187.5 -47zM383 494
q0 -117 52.5 -194t135.5 -77q65 0 117 55.5t66 131.5q6 53 6 100q0 59 -4 84q-14 86 -62 139t-114 53q-89 0 -143 -84.5t-54 -207.5z" />
    <glyph glyph-name="beta" unicode="&#x3b2;" horiz-adv-x="1202" 
d="M119 846q0 205 43 321t119 187q130 123 335 123q190 0 299 -107t109 -268q0 -91 -45 -179t-121 -128v-11q114 -28 195 -130t80 -244q0 -192 -124.5 -312.5t-310.5 -120.5q-171 0 -272 93h-4v-119q0 -256 24 -357h-288q-39 79 -39 351v901zM598 1235q-178 0 -178 -334
v-586q80 -104 198 -104q96 0 148.5 61t52.5 150q0 103 -63.5 165t-157.5 62h-14h-31v191q83 0 136.5 63t53.5 148q0 82 -39.5 133t-105.5 51z" />
    <glyph glyph-name="gamma" unicode="&#x3b3;" horiz-adv-x="1054" 
d="M319 166q-47 225 -144 444t-202 391h346q60 -92 132 -289.5t108 -394.5h10q148 331 148 594q0 70 -2 90h297q4 -20 4 -77q0 -181 -96 -411t-258 -474q-13 -19 -13 -49q1 -25 6 -396h-303q11 355 -33 572z" />
    <glyph glyph-name="delta" unicode="&#x3b4;" horiz-adv-x="1179" 
d="M582 -23q-220 0 -367 137.5t-147 358.5q0 73 19.5 139t51.5 116.5t76.5 95t90 75t97.5 55.5v9l-38 34q-111 105 -111 209q0 106 110.5 188.5t297.5 82.5q117 0 214.5 -30.5t149.5 -70.5l-80 -194q-34 25 -109 49t-147 24q-112 0 -112 -53q0 -22 25 -46.5t91 -74.5
l168 -135q248 -198 248 -452q0 -116 -41 -213.5t-112 -163.5t-168 -103t-207 -37zM573 809q-84 -50 -135 -133t-51 -197q0 -116 61.5 -197t151.5 -81q86 0 142.5 74t56.5 192q0 73 -34 142.5t-97 121.5z" />
    <glyph glyph-name="epsilon" unicode="&#x3b5;" horiz-adv-x="958" 
d="M68 287q0 90 62.5 155t156.5 86v11q-82 26 -127 79.5t-45 126.5q0 114 113 197.5t323 83.5q208 0 336 -76l-53 -196q-104 55 -236 55q-80 0 -125 -26t-45 -68q0 -87 229 -90h99v-203h-99q-58 -1 -101 -6t-79 -15.5t-55 -30.5t-19 -48q0 -55 58 -84t141 -29q67 0 142 17.5
t128 43.5l43 -200q-76 -48 -182.5 -70.5t-212.5 -22.5q-86 0 -163 17t-143.5 51.5t-106 97t-39.5 144.5z" />
    <glyph glyph-name="zeta" unicode="&#x3b6;" horiz-adv-x="903" 
d="M72 459q0 198 110 399.5t303 358.5v10h-96q-155 0 -229 28l30 197q63 -6 285 -6h381l43 -203q-100 -46 -192.5 -125.5t-162 -176t-111.5 -208.5t-42 -217q0 -209 174 -289q31 -16 73 -28.5t70.5 -18.5t84.5 -16t75 -14q8 -2 14.5 -9.5t6.5 -17.5q0 -103 -45 -232.5
t-105 -203.5l-192 61q17 33 34 99.5t19 103.5q-93 16 -167 38.5t-144 62.5t-116 93.5t-73.5 133.5t-27.5 180z" />
    <glyph glyph-name="eta" unicode="&#x3b7;" horiz-adv-x="1200" 
d="M92 1001h275q31 -60 34 -139h7q39 63 117.5 112.5t191.5 49.5q161 0 259.5 -109.5t98.5 -322.5v-645q0 -271 21 -353h-295q-37 63 -37 355v606q0 217 -158 217q-80 0 -125 -57t-45 -137v-578h-311v682q0 224 -33 319z" />
    <glyph glyph-name="theta" unicode="&#x3b8;" horiz-adv-x="1167" 
d="M68 737q0 214 58 378.5t179.5 263t292.5 98.5q127 0 224 -54t157.5 -153t90.5 -233t30 -300q0 -232 -54.5 -399.5t-172.5 -264t-291 -96.5q-245 0 -379.5 195t-134.5 565zM795 631h-418q0 -203 55 -319.5t158 -116.5q102 0 153.5 117.5t51.5 318.5zM586 1260
q-99 0 -155 -115.5t-56 -292.5h416q0 180 -53.5 294t-151.5 114z" />
    <glyph glyph-name="iota" unicode="&#x3b9;" horiz-adv-x="573" 
d="M125 283v718h311v-688q0 -53 19 -75.5t61 -22.5h12l-14 -217q-47 -21 -131 -21q-63 0 -109 14.5t-80.5 49t-51.5 94.5t-17 148z" />
    <glyph glyph-name="kappa" unicode="&#x3ba;" horiz-adv-x="1122" 
d="M96 1001h307q33 -37 33 -178v-239h6q27 33 56.5 72t51.5 69t54.5 76t47.5 67.5t49.5 71.5t41.5 61h355v-10q-19 -21 -165.5 -187.5t-227.5 -256.5v-8q64 -18 119 -83t126 -182l160 -274h-358l-111 201q-62 107 -102.5 155.5t-87.5 51.5h-15v-408h-311v745q0 78 -8 154.5
t-21 101.5z" />
    <glyph glyph-name="lambda" unicode="&#x3bb;" horiz-adv-x="1060" 
d="M332 0h-324l350 920q11 28 11 51q0 16 -11 53q-34 89 -91 143t-120 54h-45l29 235q30 12 102 12q83 0 151 -33.5t120.5 -99.5t91.5 -141.5t78 -181.5l377 -1012h-332l-137 453q-40 135 -58 213h-10q-12 -60 -49 -207z" />
    <glyph glyph-name="uni03BC" unicode="&#x3bc;" horiz-adv-x="1198" 
d="M154 -406q-29 71 -29 363v1044h311v-559q0 -103 38.5 -159t113.5 -56q74 0 123 51.5t49 124.5v598h311v-675q0 -63 20 -88t64 -27l-16 -215q-40 -19 -113 -19q-177 0 -225 160h-6q-28 -61 -93 -106t-155 -45q-88 0 -141 59v-86q0 -258 22 -365h-274z" />
    <glyph glyph-name="nu" unicode="&#x3bd;" horiz-adv-x="1044" 
d="M346 0l-348 1001h336l133 -464q14 -46 33.5 -129.5t29.5 -118.5h9q170 365 170 633q0 50 -2 79h292q7 -44 7 -77q0 -102 -28.5 -218t-82.5 -238.5t-112 -230.5t-136 -237h-301z" />
    <glyph glyph-name="xi" unicode="&#x3be;" horiz-adv-x="966" 
d="M657 -49q-60 9 -108.5 19t-112.5 28.5t-112.5 41t-98.5 58t-83 78.5t-53.5 103t-20.5 131q0 144 86.5 252t224.5 147v10q-103 39 -159 116.5t-54 176.5q0 152 125 258.5t348 106.5q164 0 283 -56l-50 -202q-84 38 -184 38t-154.5 -51t-54.5 -129q0 -57 33 -96.5t88 -57.5
t105 -25t106 -7v-209h-57q-171 0 -263 -64t-92 -174q0 -88 64 -146.5t205 -96.5q127 -35 260 -51q24 -3 24 -27q0 -93 -45.5 -227t-103.5 -207l-195 61q17 33 32 98t17 103z" />
    <glyph glyph-name="omicron" unicode="&#x3bf;" horiz-adv-x="1181" 
d="M68 494q0 244 146 388t390 144q228 0 369 -143t141 -371q0 -133 -44.5 -237.5t-119.5 -168t-168 -96.5t-196 -33q-226 0 -372 140t-146 377zM389 502q0 -133 54 -217t151 -84q92 0 145.5 83t53.5 220q0 78 -19.5 143.5t-66 110.5t-113.5 45q-70 0 -118 -46t-67.5 -111.5
t-19.5 -143.5z" />
    <glyph glyph-name="pi" unicode="&#x3c0;" horiz-adv-x="1228" 
d="M39 752l-33 180q72 69 356 69h832l-29 -235h-121v-453q0 -201 25 -313h-299q-35 52 -35 291v475h-217q-3 -192 -34.5 -424.5t-77.5 -341.5h-297q45 148 77.5 376.5t30.5 389.5q-119 0 -178 -14z" />
    <glyph glyph-name="rho" unicode="&#x3c1;" horiz-adv-x="1210" 
d="M117 -51v454q0 105 15.5 189.5t44.5 143t59.5 97.5t70.5 74q137 119 340 119q224 0 360 -143t136 -377q0 -127 -40.5 -230.5t-107.5 -167t-148.5 -97.5t-168.5 -34q-81 0 -145.5 26.5t-100.5 72.5h-4v-129q0 -275 14 -353h-301q-24 76 -24 355zM631 770q-89 0 -146 -77.5
t-57 -215.5v-76q0 -32 6 -59q16 -49 67 -87t115 -38q99 0 155 79.5t56 205.5q0 120 -52.5 194t-143.5 74z" />
    <glyph glyph-name="sigma1" unicode="&#x3c2;" horiz-adv-x="937" 
d="M461 -14q-83 23 -151 61t-124 95t-87 140.5t-31 186.5q0 107 39 205.5t111 177t185.5 125.5t251.5 47q156 0 252 -49l-59 -219q-95 35 -178 35q-123 0 -202 -85t-79 -217q0 -203 211 -270q114 -38 285 -65q18 -3 18 -29q0 -106 -44.5 -241.5t-100.5 -198.5l-195 63
q16 31 32 95t21 106q-118 26 -155 37z" />
    <glyph glyph-name="sigma" unicode="&#x3c3;" horiz-adv-x="1216" 
d="M586 -23q-226 0 -372 137.5t-146 374.5q0 245 149.5 391t405.5 146h575l-12 -225q-69 0 -219 12l-2 -10q63 -56 97 -140.5t34 -164.5q0 -105 -28 -192t-75.5 -147t-113 -101.5t-139 -61t-154.5 -19.5zM389 502q0 -133 54 -217t151 -84q89 0 141.5 83.5t52.5 219.5
q0 78 -18 143t-63 110.5t-111 45.5q-71 0 -119.5 -45t-68 -110.5t-19.5 -145.5z" />
    <glyph glyph-name="tau" unicode="&#x3c4;" horiz-adv-x="925" 
d="M20 752l-38 182q87 67 352 67h571l-28 -235h-273v-414q0 -135 103 -135h38l-12 -217q-52 -23 -143 -23q-162 0 -229.5 86.5t-67.5 266.5v436h-84q-114 0 -189 -14z" />
    <glyph glyph-name="upsilon" unicode="&#x3c5;" horiz-adv-x="1142" 
d="M109 668q0 248 -25 333h303q18 -20 25.5 -64t7.5 -130v-377q0 -96 45 -148.5t113 -52.5q64 0 106 52t59 132.5t17 186.5q0 118 -20.5 233t-41.5 168h291q31 -61 53.5 -163t22.5 -220q0 -98 -15.5 -186.5t-53.5 -173t-95 -146t-147 -98.5t-203 -37q-127 0 -225 46
t-157.5 145.5t-59.5 241.5v258z" />
    <glyph glyph-name="phi" unicode="&#x3c6;" horiz-adv-x="1456" 
d="M68 508q0 102 36 194.5t92.5 156t117.5 106.5t120 63l117 -166q-73 -51 -123.5 -140t-50.5 -208q0 -126 59 -213.5t160 -110.5v478q0 92 27.5 163t74.5 112t103.5 61t120.5 20q134 0 241.5 -70.5t165 -185t57.5 -246.5q0 -122 -45 -224t-119.5 -167.5t-164 -104.5
t-185.5 -49v-383h-276v383q-82 7 -156.5 30t-143 66.5t-119 103t-80 144.5t-29.5 187zM870 729v-543q99 21 160.5 107.5t61.5 222.5q0 124 -51.5 209.5t-114.5 85.5q-25 0 -40.5 -21.5t-15.5 -60.5z" />
    <glyph glyph-name="chi" unicode="&#x3c7;" horiz-adv-x="1032" 
d="M264 -463l-264 70l354 712l-344 682h334l195 -452h8q47 123 69 176l115 276h297l-346 -679l348 -717l-295 -68l-235 522h-11q-5 -12 -30 -77t-47 -113z" />
    <glyph glyph-name="psi" unicode="&#x3c8;" horiz-adv-x="1486" 
d="M100 1001h283q29 -39 29 -194v-258q0 -336 206 -354v1069h277v-1069q71 2 121.5 58.5t74 143.5t23.5 193q0 136 -21 249t-42 162h276q82 -156 82 -393q0 -94 -16.5 -179t-55 -165.5t-96.5 -140.5t-146.5 -99.5t-199.5 -46.5v-383h-277v383q-503 34 -503 547v221
q0 173 -15 256z" />
    <glyph glyph-name="omega" unicode="&#x3c9;" horiz-adv-x="1501" 
d="M469 -23q-78 0 -149 34t-128 98.5t-90.5 168t-33.5 232.5q0 160 48 288.5t117 207.5h281v-7q-66 -85 -105.5 -209.5t-39.5 -259.5q0 -143 41.5 -217.5t99.5 -74.5q45 0 71.5 45.5t24.5 115.5l-4 367h293l-6 -367q0 -71 26 -116t74 -45q62 0 101.5 81t39.5 230
q0 129 -37 251.5t-104 198.5v7h283q64 -61 113 -189t49 -282q0 -259 -119.5 -408.5t-298.5 -149.5q-88 0 -160 42.5t-106 115.5h-9q-42 -71 -112 -114.5t-160 -43.5z" />
    <glyph glyph-name="iotadieresis" unicode="&#x3ca;" horiz-adv-x="573" 
d="M383 -23q-63 0 -109 14.5t-80.5 49t-51.5 94.5t-17 148v718h311v-688q0 -53 19 -75.5t61 -22.5h12l-14 -217q-47 -21 -131 -21zM500 1120q-61 0 -100.5 41.5t-39.5 100.5q0 61 40 101t102 40q59 0 98 -40t39 -101q0 -60 -39 -101t-100 -41zM80 1120q-60 0 -100.5 41.5
t-40.5 100.5q0 61 40.5 101t102.5 40q57 0 96 -40t39 -101q0 -59 -39 -100.5t-98 -41.5z" />
    <glyph glyph-name="upsilondieresis" unicode="&#x3cb;" horiz-adv-x="1142" 
d="M109 668q0 248 -25 333h303q18 -20 25.5 -64t7.5 -130v-377q0 -96 45 -148.5t113 -52.5q64 0 106 52t59 132.5t17 186.5q0 118 -20.5 233t-41.5 168h291q31 -61 53.5 -163t22.5 -220q0 -98 -15.5 -186.5t-53.5 -173t-95 -146t-147 -98.5t-203 -37q-127 0 -225 46
t-157.5 145.5t-59.5 241.5v258zM627 1262q0 62 39.5 101.5t101.5 39.5q59 0 98 -40t39 -101q0 -60 -39 -101t-100 -41t-100 41t-39 101zM205 1262q0 61 40.5 101t102.5 40q57 0 96 -40t39 -101q0 -59 -39 -100.5t-98 -41.5q-60 0 -100.5 41.5t-40.5 100.5z" />
    <glyph glyph-name="omicrontonos" unicode="&#x3cc;" horiz-adv-x="1181" 
d="M68 494q0 244 146 388t390 144q228 0 369 -143t141 -371q0 -133 -44.5 -237.5t-119.5 -168t-168 -96.5t-196 -33q-226 0 -372 140t-146 377zM389 502q0 -133 54 -217t151 -84q92 0 145.5 83t53.5 220q0 78 -19.5 143.5t-66 110.5t-113.5 45q-70 0 -118 -46t-67.5 -111.5
t-19.5 -143.5zM485 1120l95 312h274l-166 -312h-203z" />
    <glyph glyph-name="upsilontonos" unicode="&#x3cd;" horiz-adv-x="1142" 
d="M109 668q0 248 -25 333h303q18 -20 25.5 -64t7.5 -130v-377q0 -96 45 -148.5t113 -52.5q64 0 106 52t59 132.5t17 186.5q0 118 -20.5 233t-41.5 168h291q31 -61 53.5 -163t22.5 -220q0 -98 -15.5 -186.5t-53.5 -173t-95 -146t-147 -98.5t-203 -37q-127 0 -225 46
t-157.5 145.5t-59.5 241.5v258zM657 1122h-206l94 312h280z" />
    <glyph glyph-name="omegatonos" unicode="&#x3ce;" horiz-adv-x="1501" 
d="M68 510q0 160 48 288.5t117 207.5h281v-7q-66 -85 -105.5 -209.5t-39.5 -259.5q0 -143 41.5 -217.5t99.5 -74.5q45 0 71.5 45.5t24.5 115.5l-4 367h293l-6 -367q0 -71 26 -116t74 -45q62 0 101.5 81t39.5 230q0 129 -37 251.5t-104 198.5v7h283q64 -61 113 -189t49 -282
q0 -259 -119.5 -408.5t-298.5 -149.5q-88 0 -160 42.5t-106 115.5h-9q-42 -71 -112 -114.5t-160 -43.5q-78 0 -149 34t-128 98.5t-90.5 168t-33.5 232.5zM846 1120h-203l94 312h275z" />
    <glyph glyph-name="uni0401" unicode="&#x401;" horiz-adv-x="1093" 
d="M1016 0h-879v1380h850v-256h-538v-286h507v-254h-507v-328h567v-256zM768 1460q-59 0 -98 40.5t-39 98.5q0 60 39.5 101t99.5 41q59 0 98 -40.5t39 -101.5q0 -58 -39.5 -98.5t-99.5 -40.5zM342 1460q-58 0 -98.5 41t-40.5 98q0 60 40.5 101t100.5 41q57 0 96 -40.5
t39 -101.5q0 -58 -39 -98.5t-98 -40.5z" />
    <glyph glyph-name="uni0402" unicode="&#x402;" horiz-adv-x="1478" 
d="M387 1124h-358v256h1151v-256h-482v-260h9q106 60 241 60q94 0 171 -32t130 -87t89 -128.5t52.5 -155t16.5 -169.5q0 -192 -76 -338t-217 -219q-114 -88 -254 -106l-47 256q148 38 207 131t59 256q0 64 -10 119t-33.5 107.5t-71 83t-114.5 30.5q-86 0 -152 -47v-625h-311
v1124z" />
    <glyph glyph-name="uni0403" unicode="&#x403;" horiz-adv-x="1001" 
d="M137 1380h834v-256h-522v-1124h-312v1380zM561 1706h328l-250 -252h-250z" />
    <glyph glyph-name="uni0404" unicode="&#x404;" horiz-adv-x="1218" 
d="M795 -23q-338 0 -530.5 191t-192.5 518q0 112 28.5 216t89 195.5t146.5 159.5t208 107t267 39q212 0 350 -70l-63 -237q-116 55 -273 55q-178 0 -285 -93t-132 -239h626v-244h-624q15 -154 131 -248t301 -94q144 0 260 48l47 -236q-53 -27 -147.5 -47.5t-206.5 -20.5z
" />
    <glyph glyph-name="uni0405" unicode="&#x405;" horiz-adv-x="1105" 
d="M82 66l63 256q69 -36 161.5 -61t185.5 -25q105 0 162 40t57 109q0 64 -52.5 107t-179.5 86q-381 133 -381 409q0 181 142.5 297.5t380.5 116.5q205 0 352 -70l-70 -250q-130 66 -287 66q-96 0 -148 -38.5t-52 -94.5q0 -62 55 -101t201 -94q184 -69 270 -167.5t86 -243.5
q0 -88 -34 -164.5t-100.5 -136t-174.5 -93.5t-246 -34q-112 0 -219.5 25.5t-171.5 60.5z" />
    <glyph glyph-name="uni0406" unicode="&#x406;" horiz-adv-x="583" 
d="M137 1380h312v-1380h-312v1380z" />
    <glyph glyph-name="uni0407" unicode="&#x407;" horiz-adv-x="583" 
d="M449 0h-312v1380h312v-1380zM367 1599q0 60 39.5 101t99.5 41q59 0 98 -40.5t39 -101.5q0 -58 -39.5 -98.5t-99.5 -40.5q-59 0 -98 40.5t-39 98.5zM80 1460q-58 0 -98.5 41t-40.5 98q0 60 40.5 101t100.5 41q57 0 96 -40.5t39 -101.5q0 -58 -39 -98.5t-98 -40.5z" />
    <glyph glyph-name="uni0408" unicode="&#x408;" horiz-adv-x="841" 
d="M-2 10l35 252q74 -24 160 -24q106 0 159.5 60.5t53.5 211.5v870h311v-872q0 -283 -126 -407t-364 -124q-128 0 -229 33z" />
    <glyph glyph-name="uni0409" unicode="&#x409;" horiz-adv-x="1935" 
d="M33 -23l-41 250q54 8 96.5 33t69.5 55.5t46 79.5t28.5 88t14.5 100.5t6 97t1 95.5v604h905v-491q75 10 164 10q108 0 203.5 -27t172 -80t121 -139.5t44.5 -197.5q0 -109 -42 -193t-108 -135t-158 -84t-182.5 -45t-191.5 -12q-192 0 -332 20v1118h-293v-327
q0 -94 -4 -168.5t-17 -163t-35 -155t-61.5 -132t-93.5 -107.5t-134 -68t-179 -26zM1159 659v-434q37 -6 107 -6q115 0 194.5 61.5t79.5 170.5t-76 163t-194 54q-32 0 -111 -9z" />
    <glyph glyph-name="uni040A" unicode="&#x40a;" horiz-adv-x="1953" 
d="M137 1380h312v-514h419v514h310v-495q78 10 170 10q111 0 206 -26.5t169 -78.5t116.5 -137t42.5 -194t-41 -194t-107 -136.5t-157.5 -84.5t-182 -45.5t-192.5 -12.5q-194 0 -334 20v598h-419v-604h-312v1380zM1178 653v-426q49 -8 110 -8q116 0 193.5 60.5t77.5 169.5
t-74.5 162t-192.5 53q-50 0 -114 -11z" />
    <glyph glyph-name="uni040B" unicode="&#x40b;" horiz-adv-x="1495" 
d="M31 1124v256h1128v-256h-461v-278h7q57 35 135 58.5t157 23.5q97 0 170 -33t116.5 -92.5t65 -136.5t21.5 -172v-494h-311v453q0 223 -178 223q-104 0 -183 -62v-614h-311v1124h-356z" />
    <glyph glyph-name="uni040C" unicode="&#x40c;" horiz-adv-x="1239" 
d="M137 0v1380h307v-575h29l379 575h379l-481 -614q125 -30 196.5 -112.5t118.5 -219.5q13 -36 36.5 -108t38.5 -115.5t38.5 -103t46.5 -107.5h-336q-16 33 -32 74.5t-26 72t-25.5 81.5t-23.5 75q-21 66 -41.5 110t-52 84.5t-77.5 60.5t-107 20h-60v-578h-307zM715 1444
h-250l172 252h328z" />
    <glyph glyph-name="uni040E" unicode="&#x40e;" horiz-adv-x="1204" 
d="M6 1382h352l201 -497q21 -52 52.5 -140t45.5 -124h7q5 18 17.5 65t26.5 99.5t29 105.5l150 491h330l-261 -682q-53 -135 -86.5 -214.5t-85 -177t-100.5 -156.5q-152 -183 -367 -183q-86 0 -153 23l22 250q49 -11 103 -11q67 0 116 37.5t72 89.5q11 27 -6 66zM598 1448
q-274 0 -297 252h211q3 -63 24 -94t68 -31q85 0 94 125h211q-9 -127 -90 -189.5t-221 -62.5z" />
    <glyph glyph-name="uni040F" unicode="&#x40f;" horiz-adv-x="1380" 
d="M547 0h-410v1380h312v-1124h485v1124h311v-1380h-409l-17 -377h-256z" />
    <glyph glyph-name="uni0410" unicode="&#x410;" horiz-adv-x="1343" 
d="M37 0l420 1380h409l430 -1380h-338l-106 354h-395l-99 -354h-321zM584 881l-82 -293h305l-86 293q-26 84 -70 266h-4q-5 -19 -27.5 -119t-35.5 -147z" />
    <glyph glyph-name="uni0411" unicode="&#x411;" horiz-adv-x="1234" 
d="M137 6v1374h916v-254h-607v-237q78 10 168 10q108 0 204 -26.5t174.5 -78.5t124.5 -139.5t46 -199.5q0 -109 -43 -193.5t-110.5 -135.5t-161.5 -83.5t-185 -44.5t-192 -12q-194 0 -334 20zM446 659v-432q47 -8 119 -8q113 0 192 61t79 171q0 108 -83.5 162.5t-197.5 54.5
q-26 0 -109 -9z" />
    <glyph glyph-name="uni0412" unicode="&#x412;" horiz-adv-x="1236" 
d="M135 1362q170 29 404 29q146 0 240 -17.5t169 -60.5q75 -40 119.5 -110.5t44.5 -162.5q0 -95 -57 -172t-170 -120v-5q123 -32 198.5 -120.5t75.5 -216.5q0 -179 -143 -295q-156 -125 -543 -125q-198 0 -338 20v1356zM444 221q31 -4 121 -4q116 0 191 49.5t75 151.5
q0 66 -38.5 110t-99.5 63t-142 19h-107v-389zM444 1155v-321h103q122 0 187 46t65 124t-57.5 118.5t-163.5 40.5q-84 0 -134 -8z" />
    <glyph glyph-name="uni0413" unicode="&#x413;" horiz-adv-x="1001" 
d="M137 1380h834v-256h-522v-1124h-312v1380z" />
    <glyph glyph-name="uni0414" unicode="&#x414;" horiz-adv-x="1409" 
d="M27 238l116 8q104 181 144.5 359t40.5 407v368h903v-1134l137 -8l-14 -586h-236l-16 348h-809l-17 -348h-237zM616 942q0 -399 -155 -688h459v872h-304v-184z" />
    <glyph glyph-name="uni0415" unicode="&#x415;" horiz-adv-x="1093" 
d="M1016 0h-879v1380h850v-256h-538v-286h507v-254h-507v-328h567v-256z" />
    <glyph glyph-name="uni0416" unicode="&#x416;" horiz-adv-x="1792" 
d="M319 0h-313q26 61 50 129.5t53 161t41 129.5q48 146 124.5 232.5t206.5 111.5l-469 616h363l344 -573h26v573h302v-573h26l344 573h363l-471 -616q68 -7 123 -35t94.5 -74.5t67.5 -101t51 -125.5q8 -24 57.5 -186t85.5 -242h-315q-15 32 -31 76t-24 71t-25 85.5t-21 72.5
q-18 61 -38.5 105.5t-52.5 85t-79 61.5t-108 21h-47v-578h-302v578h-49q-61 0 -107.5 -21t-78.5 -61.5t-52.5 -84.5t-39.5 -106q-9 -29 -27.5 -95.5t-35.5 -117.5t-36 -92z" />
    <glyph glyph-name="uni0417" unicode="&#x417;" horiz-adv-x="1114" 
d="M473 -23q-245 0 -414 97l66 241q56 -30 151 -57t183 -27q119 0 186.5 48.5t67.5 134.5q0 54 -26 92t-71.5 56.5t-92 26t-101.5 7.5h-131v231h131q109 0 178.5 46.5t69.5 127.5q0 69 -55.5 110.5t-153.5 41.5q-139 0 -303 -82l-72 223q190 111 430 111q221 0 350 -99
t129 -255q0 -126 -75.5 -211t-200.5 -115v-4q136 -20 228.5 -108t92.5 -220q0 -111 -51.5 -194.5t-136.5 -130t-180.5 -69t-198.5 -22.5z" />
    <glyph glyph-name="uni0418" unicode="&#x418;" horiz-adv-x="1413" 
d="M489 0h-354v1380h287v-409q0 -331 -16 -625h6q124 272 247 492l297 542h320v-1380h-287v408q0 351 23 581h-6q-88 -230 -236 -491z" />
    <glyph glyph-name="uni0419" unicode="&#x419;" horiz-adv-x="1413" 
d="M489 0h-354v1380h287v-409q0 -331 -16 -625h6q124 272 247 492l297 542h320v-1380h-287v408q0 351 23 581h-6q-88 -230 -236 -491zM401 1696h211q3 -63 24 -94t69 -31q85 0 94 125h211q-9 -127 -90 -189.5t-222 -62.5q-274 0 -297 252z" />
    <glyph glyph-name="uni041A" unicode="&#x41a;" horiz-adv-x="1239" 
d="M444 0h-307v1380h307v-575h29l379 575h379l-481 -614q125 -30 196.5 -112.5t118.5 -219.5q13 -36 36.5 -108t38.5 -115.5t38.5 -103t46.5 -107.5h-336q-16 33 -32 74.5t-26 72t-25.5 81.5t-23.5 75q-21 66 -41.5 110t-52 84.5t-77.5 60.5t-107 20h-60v-578z" />
    <glyph glyph-name="uni041B" unicode="&#x41b;" horiz-adv-x="1320" 
d="M31 -23l-39 252q38 5 70.5 17t56.5 32.5t44 43t33.5 55t24 60t16.5 68t9.5 68.5t5 71t2 67t0.5 65v604h930v-1380h-312v1124h-313v-327q0 -95 -4 -170t-17 -163.5t-35.5 -155t-62.5 -131.5t-94.5 -107t-134.5 -67.5t-180 -25.5z" />
    <glyph glyph-name="uni041C" unicode="&#x41c;" horiz-adv-x="1732" 
d="M393 0h-289l89 1380h415l135 -460q70 -250 117 -494h8q71 308 131 496l146 458h409l74 -1380h-303l-22 528q-13 360 -13 568h-4q-68 -266 -156 -535l-167 -538h-244l-148 532q-68 248 -125 541h-4q-10 -323 -22 -572z" />
    <glyph glyph-name="uni041D" unicode="&#x41d;" horiz-adv-x="1411" 
d="M449 0h-312v1380h312v-530h514v530h311v-1380h-311v578h-514v-578z" />
    <glyph glyph-name="uni041E" unicode="&#x41e;" horiz-adv-x="1468" 
d="M72 682q0 206 82 370t236 258.5t353 94.5q155 0 281 -55.5t207 -151t124.5 -222t43.5 -271.5q0 -338 -185 -533t-493 -195q-199 0 -348 94.5t-225 253t-76 357.5zM401 688q0 -207 90.5 -335t245.5 -128q103 0 179 61.5t114.5 167t38.5 240.5q0 127 -37.5 231t-114 168
t-180.5 64q-156 0 -246 -131.5t-90 -337.5z" />
    <glyph glyph-name="uni041F" unicode="&#x41f;" horiz-adv-x="1386" 
d="M449 0h-312v1380h1114v-1380h-311v1124h-491v-1124z" />
    <glyph glyph-name="uni0420" unicode="&#x420;" horiz-adv-x="1189" 
d="M135 1362q174 29 422 29q284 0 422 -111q68 -56 107.5 -138.5t39.5 -180.5q0 -99 -30.5 -179.5t-83 -134.5t-126 -90.5t-157 -53t-178.5 -16.5q-63 0 -107 9v-496h-309v1362zM444 1143v-408q36 -8 105 -8q125 0 196.5 59.5t71.5 163.5q0 96 -64 149.5t-182 53.5
q-89 0 -127 -10z" />
    <glyph glyph-name="uni0421" unicode="&#x421;" horiz-adv-x="1218" 
d="M795 -23q-175 0 -313.5 53t-227.5 146.5t-135.5 219t-46.5 274.5q0 138 38 256.5t106.5 205t162.5 147.5t207 91.5t239 30.5q114 0 204 -18t136 -44l-65 -245q-115 51 -262 51q-194 0 -316.5 -118t-122.5 -339q0 -208 117.5 -329t323.5 -121q157 0 262 45l45 -246
q-48 -23 -143 -41.5t-209 -18.5z" />
    <glyph glyph-name="uni0422" unicode="&#x422;" horiz-adv-x="1122" 
d="M31 1118v262h1061v-262h-377v-1118h-312v1118h-372z" />
    <glyph glyph-name="uni0423" unicode="&#x423;" horiz-adv-x="1204" 
d="M471 424l-465 958h352l201 -497q21 -52 52.5 -140t45.5 -124h7q5 18 17.5 65t26.5 99.5t29 105.5l150 491h330l-261 -682q-53 -135 -86.5 -214.5t-85 -177t-100.5 -156.5q-152 -183 -367 -183q-86 0 -153 23l22 250q49 -11 103 -11q67 0 116 37.5t72 89.5q11 27 -6 66z
" />
    <glyph glyph-name="uni0424" unicode="&#x424;" horiz-adv-x="1615" 
d="M72 684q0 126 36.5 231.5t95 175.5t137.5 120.5t160 75.5t165 32v121h290v-121q93 -7 176 -32t160 -74.5t132.5 -119t88.5 -172t33 -227.5q0 -124 -32.5 -225.5t-87.5 -171t-132.5 -119t-161.5 -75.5t-180 -35v-125h-290v125q-94 7 -177.5 31.5t-160 73.5t-131.5 117.5
t-88 169.5t-33 224zM954 1104v-817q39 4 76.5 18.5t75 46t65 76t45 113.5t17.5 153q0 104 -24.5 183.5t-66.5 125.5t-88.5 70.5t-99.5 30.5zM664 1104q-39 -5 -76.5 -20.5t-75 -48t-65 -77.5t-45 -114.5t-17.5 -153.5q0 -97 25.5 -174.5t67.5 -124t89 -72.5t97 -32v817z" />
    <glyph glyph-name="uni0425" unicode="&#x425;" horiz-adv-x="1255" 
d="M33 0l399 698l-385 682h359l120 -252q61 -125 105 -229h4q37 99 94 229l117 252h356l-389 -673l410 -707h-361l-125 250q-25 48 -123 248h-4q-13 -36 -28 -71.5t-42.5 -94.5t-37.5 -82l-113 -250h-356z" />
    <glyph glyph-name="uni0426" unicode="&#x426;" horiz-adv-x="1421" 
d="M1114 0h-977v1380h312v-1124h483v1124h311v-1134l139 -8l-14 -586h-238z" />
    <glyph glyph-name="uni0427" unicode="&#x427;" horiz-adv-x="1314" 
d="M553 489q-196 0 -313 108t-117 321v462h311v-407q0 -118 60.5 -177t171.5 -59q99 0 202 54v589h312v-1398h-312v577h-6q-149 -70 -309 -70z" />
    <glyph glyph-name="uni0428" unicode="&#x428;" horiz-adv-x="1869" 
d="M137 0v1380h305v-1124h342v1124h306v-1124h342v1124h305v-1380h-1600z" />
    <glyph glyph-name="uni0429" unicode="&#x429;" horiz-adv-x="1912" 
d="M1604 0h-1467v1380h305v-1124h340v1124h305v-1124h343v1124h305v-1134l137 -8l-14 -586h-238z" />
    <glyph glyph-name="uni042A" unicode="&#x42a;" horiz-adv-x="1445" 
d="M25 1126v254h659v-479q98 10 166 10q103 0 196 -29t167 -83t117.5 -141t43.5 -195q0 -109 -38.5 -193.5t-101.5 -137t-151 -86.5t-178.5 -47t-193.5 -13q-196 0 -336 20v1120h-350zM684 664v-437q39 -8 113 -8q110 0 180 61.5t70 170.5t-71.5 165t-178.5 56
q-51 0 -113 -8z" />
    <glyph glyph-name="uni042B" unicode="&#x42b;" horiz-adv-x="1744" 
d="M137 1380h309v-481q82 12 154 12q87 0 166.5 -17t149 -53t121 -88t81 -127.5t29.5 -166.5q0 -109 -40.5 -193.5t-105.5 -136t-155.5 -85t-181.5 -46t-193 -12.5q-194 0 -334 20v1374zM1274 0v1380h311v-1380h-311zM446 664v-437q33 -8 105 -8q110 0 189 62t79 170
q0 57 -24 101t-63.5 69t-84.5 38t-92 13t-109 -8z" />
    <glyph glyph-name="uni042C" unicode="&#x42c;" horiz-adv-x="1234" 
d="M137 6v1374h309v-481q86 12 168 12q114 0 211.5 -27.5t174 -81t120 -140.5t43.5 -199t-41 -198t-106.5 -137.5t-158 -84.5t-185 -45t-197.5 -12q-198 0 -338 20zM446 664v-437q47 -8 115 -8q121 0 198 59t77 171q0 113 -75 168t-196 55q-45 0 -119 -8z" />
    <glyph glyph-name="uni042D" unicode="&#x42d;" horiz-adv-x="1202" 
d="M410 -23q-101 0 -198.5 19.5t-156.5 46.5l56 240q121 -50 274 -50q173 0 281.5 95.5t126.5 249.5h-590v243h592q-16 145 -115 237.5t-264 92.5q-145 0 -283 -57l-61 231q177 78 368 78q141 0 256.5 -37.5t195 -103.5t134 -157t79.5 -195.5t25 -221.5q0 -137 -36 -252.5
t-100.5 -199t-154.5 -142.5t-198.5 -88t-230.5 -29z" />
    <glyph glyph-name="uni042E" unicode="&#x42e;" horiz-adv-x="1886" 
d="M446 0h-311v1380h311v-538h166q42 255 204 409t401 154q142 0 257.5 -55.5t190 -151t114.5 -222t40 -271.5q0 -337 -171.5 -532.5t-451.5 -195.5q-167 0 -296.5 78t-203.5 213.5t-92 311.5h-158v-580zM909 688q0 -131 34.5 -235.5t103.5 -167t161 -62.5q93 0 160.5 62.5
t101 168t33.5 240.5q0 128 -32.5 231.5t-101 168.5t-161.5 65t-162 -64.5t-103 -170t-34 -236.5z" />
    <glyph glyph-name="uni042F" unicode="&#x42f;" horiz-adv-x="1228" 
d="M16 0q40 62 70 154q10 29 29.5 92.5t31.5 98t32.5 83t45 84t54.5 63.5q51 48 114 70v6q-126 24 -208.5 110t-82.5 228q0 96 37 169t95 116.5t139.5 70.5t159 36.5t165.5 9.5q215 0 396 -29v-1362h-310v541h-75q-91 0 -148 -54q-31 -29 -58 -80t-41.5 -90.5t-36 -109
t-28.5 -90.5q-24 -70 -49 -117h-332zM414 961q0 -92 74 -143.5t186 -51.5q81 0 110 6v373q-46 12 -127 12q-109 0 -176 -48t-67 -148z" />
    <glyph glyph-name="uni0430" unicode="&#x430;" horiz-adv-x="1081" 
d="M383 -23q-146 0 -235 91t-89 217q0 190 157 286.5t431 96.5v12q0 53 -39.5 92t-142.5 39q-73 0 -149 -22t-128 -54l-57 201q162 90 389 90q121 0 208.5 -33.5t136.5 -95t71 -136.5t22 -169v-350q0 -164 17 -242h-281l-18 100h-6q-101 -123 -287 -123zM657 473
q-290 0 -290 -158q0 -58 33.5 -88t88.5 -30q70 0 119 49.5t49 118.5v108z" />
    <glyph glyph-name="uni0431" unicode="&#x431;" horiz-adv-x="1181" 
d="M598 -25q-128 0 -228 49.5t-164 138.5t-97 209.5t-33 264.5q0 407 215 610q146 155 418 185q221 24 299 43l-19 -246q-90 -25 -235 -37q-217 -18 -316 -131q-42 -45 -72 -115.5t-36 -132.5h10q47 84 134.5 136t193.5 52q203 0 324.5 -136.5t121.5 -362.5
q0 -240 -144 -383.5t-372 -143.5zM446 702q-53 -74 -53 -196q0 -52 11.5 -103.5t34.5 -98.5t64 -76t93 -29q69 0 115.5 45.5t65 109t18.5 140.5q0 53 -10.5 102t-33 93t-63.5 70.5t-96 26.5q-96 0 -146 -84z" />
    <glyph glyph-name="uni0432" unicode="&#x432;" horiz-adv-x="1130" 
d="M123 991q190 25 403 25q496 0 496 -256q0 -90 -60 -145t-145 -70v-6q116 -19 182 -81.5t66 -162.5q0 -309 -592 -309q-208 0 -350 18v987zM428 178q33 -4 104 -4q58 0 103 11t77.5 41.5t32.5 76.5q0 127 -229 127h-88v-252zM430 817v-207h80q205 0 205 109
q0 104 -180 104z" />
    <glyph glyph-name="uni0433" unicode="&#x433;" horiz-adv-x="851" 
d="M123 1001h698v-241h-387v-760h-311v1001z" />
    <glyph glyph-name="uni0434" unicode="&#x434;" horiz-adv-x="1208" 
d="M27 -324l-9 537l95 6q145 216 145 537v245h799v-782l110 -4l-14 -539h-233l-11 324h-633l-14 -324h-235zM422 227h332v547h-226v-117q0 -243 -106 -430z" />
    <glyph glyph-name="uni0435" unicode="&#x435;" horiz-adv-x="1081" 
d="M68 489q0 98 31 191t90.5 171t159 125.5t224.5 47.5q94 0 170.5 -28.5t127 -76t85 -112.5t49.5 -135.5t15 -147.5q0 -66 -10 -123h-645q6 -92 86 -141t196 -49q152 0 277 43l41 -211q-149 -63 -363 -63q-253 0 -393.5 136t-140.5 373zM362 614h369q0 32 -8 64t-26 65
t-54.5 53.5t-87.5 20.5q-47 0 -84 -19.5t-59 -51.5t-34.5 -65.5t-15.5 -66.5z" />
    <glyph glyph-name="uni0436" unicode="&#x436;" horiz-adv-x="1509" 
d="M303 0h-307q16 33 34 75.5t29.5 73.5t30.5 85t29 81q35 103 93 171.5t138 82.5l-348 432h344l225 -401h33v401h301v-401h31l227 401h344l-348 -432q80 -14 139.5 -83.5t94.5 -170.5q5 -15 27 -80t31 -90t26.5 -69t33.5 -76h-311q-24 40 -86 229q-57 170 -184 170h-25
v-399h-301v399h-24q-130 0 -189 -170q-9 -25 -24.5 -70.5t-23 -66t-19 -47.5t-21.5 -45z" />
    <glyph glyph-name="uni0437" unicode="&#x437;" horiz-adv-x="997" 
d="M438 -18q-229 0 -391 96l66 192q53 -29 131.5 -48.5t154.5 -20.5q95 0 144 30t49 76q0 113 -217 113h-150l-2 190h150q92 0 140 28t48 73q0 44 -44.5 71t-125.5 27q-131 0 -254 -70l-59 181q169 102 407 102q73 0 140.5 -13.5t129 -43t98 -84t36.5 -127.5
q0 -62 -34.5 -110.5t-80.5 -73.5t-100 -38v-8q49 -6 93.5 -22t83 -43t61 -70.5t22.5 -97.5q0 -71 -32.5 -126.5t-83 -89t-118.5 -55.5t-132 -30t-130 -8z" />
    <glyph glyph-name="uni0438" unicode="&#x438;" horiz-adv-x="1222" 
d="M123 0v1001h295v-307q0 -120 -17 -407l9 -2q16 40 53 136.5t61 149.5l195 430h381v-1001h-295v305q0 71 2 124.5t7.5 146.5t8.5 161h-8q-59 -165 -104 -268q-39 -90 -209 -469h-379z" />
    <glyph glyph-name="uni0439" unicode="&#x439;" horiz-adv-x="1222" 
d="M502 0h-379v1001h295v-307q0 -120 -17 -407l9 -2q16 40 53 136.5t61 149.5l195 430h381v-1001h-295v305q0 71 2 124.5t7.5 146.5t8.5 161h-8q-59 -165 -104 -268q-39 -90 -209 -469zM604 1126q-137 0 -209 76.5t-78 212.5h197q2 -68 26.5 -106.5t67.5 -38.5
q45 0 70.5 38.5t30.5 106.5h196q-9 -141 -88 -215t-213 -74z" />
    <glyph glyph-name="uni043A" unicode="&#x43a;" horiz-adv-x="1085" 
d="M436 0h-311v1001h311v-399h33l254 399h362l-368 -432q84 -14 145 -85t107 -189q6 -15 49 -127.5t72 -167.5h-326q-7 10 -14 24.5t-12.5 27.5t-14.5 36t-14 37.5t-17 46.5t-18 49q-66 176 -207 176h-31v-397z" />
    <glyph glyph-name="uni043B" unicode="&#x43b;" horiz-adv-x="1118" 
d="M35 -23l-35 242q76 13 113 53q39 43 52 115t13 207v407h817v-1001h-311v764h-217v-184q0 -198 -30.5 -319t-110.5 -185q-92 -99 -291 -99z" />
    <glyph glyph-name="uni043C" unicode="&#x43c;" horiz-adv-x="1470" 
d="M369 0h-279l70 1001h397l109 -378q50 -184 65 -252h6q39 146 80 274l111 356h393l61 -1001h-288l-17 401q-1 28 -5 155.5t-5 195.5h-6q-14 -47 -28.5 -102t-29 -104.5t-38.5 -121.5l-134 -408h-227l-119 398q-13 42 -27.5 100t-31 131t-23.5 100h-8q-1 -46 -4.5 -174.5
t-5.5 -175.5z" />
    <glyph glyph-name="uni043D" unicode="&#x43d;" horiz-adv-x="1185" 
d="M434 0h-311v1001h311v-362h316v362h311v-1001h-311v397h-316v-397z" />
    <glyph glyph-name="uni043E" unicode="&#x43e;" horiz-adv-x="1181" 
d="M68 494q0 244 146 388t390 144q228 0 369 -143t141 -371q0 -133 -44.5 -237.5t-119.5 -168t-168 -96.5t-196 -33q-226 0 -372 140t-146 377zM389 502q0 -133 54 -217t151 -84q92 0 145.5 83t53.5 220q0 78 -19.5 143.5t-66 110.5t-113.5 45q-70 0 -118 -46t-67.5 -111.5
t-19.5 -143.5z" />
    <glyph glyph-name="uni043F" unicode="&#x43f;" horiz-adv-x="1179" 
d="M434 0h-311v1001h932v-1001h-314v762h-307v-762z" />
    <glyph glyph-name="uni0440" unicode="&#x440;" horiz-adv-x="1224" 
d="M125 666q0 147 -8 335h270l14 -139h5q115 162 333 162q82 0 157 -35.5t133 -99.5t92 -161.5t34 -213.5q0 -132 -39.5 -237t-105 -169t-145 -97.5t-165.5 -33.5q-88 0 -156.5 32t-103.5 83h-4v-498h-311v1072zM436 430q0 -90 49.5 -151.5t139.5 -61.5q100 0 157.5 77
t57.5 206q0 125 -55 202.5t-156 77.5q-84 0 -138.5 -64t-54.5 -149v-137z" />
    <glyph glyph-name="uni0441" unicode="&#x441;" horiz-adv-x="923" 
d="M598 -20q-243 0 -386.5 138.5t-143.5 373.5q0 111 37.5 207t108.5 168.5t181 114.5t246 42q135 0 238 -39l-50 -231q-69 30 -174 30q-122 0 -196 -78t-72 -202q0 -132 78 -206.5t197 -74.5q100 0 178 33l37 -229q-96 -47 -279 -47z" />
    <glyph glyph-name="uni0442" unicode="&#x442;" horiz-adv-x="944" 
d="M317 762h-290v239h893v-239h-291v-762h-312v762z" />
    <glyph glyph-name="uni0443" unicode="&#x443;" horiz-adv-x="1071" 
d="M381 84l-369 917h346l150 -493q36 -127 49 -186h8q18 84 43 188l125 491h332l-234 -659q-92 -257 -153 -377q-161 -319 -392 -395q-51 -17 -106 -23l-67 263q66 14 135 53q41 24 93 78.5t52 91.5q0 21 -12 51z" />
    <glyph glyph-name="uni0444" unicode="&#x444;" horiz-adv-x="1474" 
d="M68 494q0 119 42 215.5t115.5 159.5t166.5 100.5t202 48.5l-2 426h293l-4 -424q109 -12 202.5 -50.5t167 -102t115 -158.5t41.5 -211q0 -118 -43 -214t-117 -158t-167 -98.5t-199 -45.5l4 -388h-293l4 388q-107 8 -201 44.5t-168 99t-116.5 157.5t-42.5 211zM596 817
q-110 -27 -165.5 -111t-55.5 -206q0 -124 55.5 -207t165.5 -109v633zM879 184q110 27 165.5 110.5t55.5 207.5q0 120 -55.5 203t-165.5 110v-631z" />
    <glyph glyph-name="uni0445" unicode="&#x445;" horiz-adv-x="1062" 
d="M348 0h-342l340 510l-332 491h348l99 -167q17 -30 45.5 -83t36.5 -67h4q56 114 78 154l88 163h338l-330 -477l334 -524h-353l-100 180q-20 34 -78 152h-6q-19 -40 -76 -152z" />
    <glyph glyph-name="uni0446" unicode="&#x446;" horiz-adv-x="1206" 
d="M909 0h-786v1001h311v-763h311v763h312v-782l110 -4l-14 -539h-233z" />
    <glyph glyph-name="uni0447" unicode="&#x447;" horiz-adv-x="1142" 
d="M453 299q-163 0 -251.5 91.5t-88.5 268.5v342h311v-313q0 -86 34.5 -127t114.5 -41q37 0 75 12.5t61 30.5v438h311v-1015h-311v376h-4q-99 -63 -252 -63z" />
    <glyph glyph-name="uni0448" unicode="&#x448;" horiz-adv-x="1665" 
d="M1542 0h-1419v1001h309v-763h246v763h309v-763h246v763h309v-1001z" />
    <glyph glyph-name="uni0449" unicode="&#x449;" horiz-adv-x="1691" 
d="M1395 0h-1272v1001h309v-763h246v763h309v-763h246v763h309v-782l111 -4l-15 -539h-233z" />
    <glyph glyph-name="uni044A" unicode="&#x44a;" horiz-adv-x="1331" 
d="M324 764h-283v237h594v-294q75 10 164 10q71 0 136 -11t127 -38t107 -67t72 -102.5t27 -140.5q0 -75 -28 -135t-77.5 -99.5t-109 -67t-131.5 -42t-135.5 -20.5t-129.5 -6q-177 0 -333 18v758zM633 205q44 -6 106 -6q42 0 78.5 7.5t69.5 24t52 46.5t19 71q0 47 -21 79.5
t-57 49t-73 23t-80 6.5q-42 0 -94 -10v-291z" />
    <glyph glyph-name="uni044B" unicode="&#x44b;" horiz-adv-x="1591" 
d="M123 6v995h311v-296q82 12 162 12q69 0 132 -11.5t122 -38t102 -66t69 -100t26 -134.5q0 -89 -38 -158t-97 -110t-140 -67t-157 -35t-158 -9q-178 0 -334 18zM1468 0h-311v1001h311v-1001zM541 506q-61 0 -109 -10v-293q54 -4 94 -4q89 0 150 38t61 119q0 78 -57.5 114
t-138.5 36z" />
    <glyph glyph-name="uni044C" unicode="&#x44c;" horiz-adv-x="1134" 
d="M123 1001h311v-296q86 12 158 12q73 0 139.5 -10.5t129.5 -36t108.5 -64t73.5 -99.5t28 -138q0 -67 -21 -123t-56 -94.5t-85 -68.5t-103.5 -47.5t-116.5 -28.5t-118 -15t-114 -4q-178 0 -334 18v995zM432 205q44 -6 105 -6q57 0 104.5 12.5t84 49t36.5 93.5
q0 44 -21.5 75.5t-58 47t-73.5 22.5t-77 7q-48 0 -100 -10v-291z" />
    <glyph glyph-name="uni044D" unicode="&#x44d;" horiz-adv-x="993" 
d="M352 -23q-177 0 -307 68l45 211q102 -41 232 -41q110 0 185 50t95 141h-432v196h438q-16 91 -83 143t-185 52q-119 0 -223 -45l-58 198q142 74 334 74q240 0 385.5 -139.5t145.5 -380.5q0 -239 -154 -383t-418 -144z" />
    <glyph glyph-name="uni044E" unicode="&#x44e;" horiz-adv-x="1579" 
d="M432 0h-309v1001h309v-372h129q35 184 161 290.5t314 106.5q212 0 343.5 -143t131.5 -371q0 -129 -40 -232.5t-108.5 -168.5t-156 -99.5t-184.5 -34.5q-186 0 -313.5 113.5t-153.5 310.5h-123v-401zM850 500q0 -131 45 -216t133 -85q84 0 128 84.5t44 218.5q0 81 -17 147
t-57 110t-98 44q-61 0 -102 -45t-58.5 -111t-17.5 -147z" />
    <glyph glyph-name="uni044F" unicode="&#x44f;" horiz-adv-x="1132" 
d="M348 0h-332q34 42 64 111q5 12 33.5 83.5t53 117t52.5 75.5q57 61 127 74v6q-45 5 -88.5 22t-82.5 46t-63 76t-24 104q0 56 19.5 101.5t51.5 76t78 54t93 37t102.5 21.5t100.5 10.5t94 2.5q176 0 383 -23v-995h-308v377h-63q-89 0 -143 -72q-15 -15 -28 -33.5t-25.5 -46
t-19 -44t-19.5 -53t-17 -46.5q-4 -13 -10 -25t-15 -29t-14 -28zM410 694q0 -61 57 -95t133 -34q27 0 59 1t43 1v250q-54 8 -106 8q-81 0 -133.5 -33t-52.5 -98z" />
    <glyph glyph-name="uni0451" unicode="&#x451;" horiz-adv-x="1081" 
d="M68 489q0 98 31 191t90.5 171t159 125.5t224.5 47.5q94 0 170.5 -28.5t127 -76t85 -112.5t49.5 -135.5t15 -147.5q0 -66 -10 -123h-645q6 -92 86 -141t196 -49q152 0 277 43l41 -211q-149 -63 -363 -63q-253 0 -393.5 136t-140.5 373zM786 1139q-60 0 -100.5 42.5
t-40.5 102.5q0 62 41.5 102.5t104.5 40.5q60 0 100.5 -41t40.5 -102t-40 -103t-101 -42h-5zM213 1284q0 61 42.5 102t104.5 41q59 0 99.5 -41t40.5 -102t-40.5 -103t-101.5 -42t-103 42.5t-42 102.5zM362 614h369q0 32 -8 64t-26 65t-54.5 53.5t-87.5 20.5q-47 0 -84 -19.5
t-59 -51.5t-34.5 -65.5t-15.5 -66.5z" />
    <glyph glyph-name="uni0452" unicode="&#x452;" horiz-adv-x="1200" 
d="M4 1110v205h148v139h311v-139h432v-205h-432v-221h4q112 108 262 108q195 0 301 -182q96 -150 96 -405q0 -228 -66 -389.5t-192 -237.5q-126 -81 -237 -88l-60 248q90 17 148 77q42 43 68 143t26 222q0 43 -3.5 84.5t-15 94t-31 90.5t-55.5 64.5t-83 26.5
q-68 0 -115 -42.5t-47 -108.5v-594h-311v1110h-148z" />
    <glyph glyph-name="uni0453" unicode="&#x453;" horiz-adv-x="851" 
d="M123 1001h698v-241h-387v-760h-311v1001zM489 1438h289l-250 -312h-213z" />
    <glyph glyph-name="uni0454" unicode="&#x454;" horiz-adv-x="966" 
d="M623 -23q-255 0 -405 139.5t-150 375.5q0 127 46 229t126.5 167.5t187.5 100.5t231 35q74 0 147.5 -14.5t115.5 -36.5l-56 -215q-88 41 -200 41t-184.5 -53t-90.5 -144h418v-196h-412q19 -94 92 -144.5t187 -50.5q106 0 203 37l45 -213q-47 -24 -128 -41t-173 -17z" />
    <glyph glyph-name="uni0455" unicode="&#x455;" horiz-adv-x="888" 
d="M68 49l55 221q46 -28 124 -50.5t144 -22.5q133 0 133 82q0 40 -29.5 63.5t-115.5 52.5q-290 100 -287 301q0 143 112.5 236.5t295.5 93.5q164 0 280 -59l-53 -215q-40 22 -99.5 39.5t-117.5 17.5q-56 0 -87.5 -21.5t-31.5 -58.5q0 -36 34 -60t128 -57q140 -49 204 -124
t66 -185q0 -146 -111.5 -236t-320.5 -90q-190 0 -323 72z" />
    <glyph glyph-name="uni0456" unicode="&#x456;" horiz-adv-x="561" 
d="M125 0v1001h311v-1001h-311zM117 1280q0 67 46 111.5t120 44.5q73 0 117 -44t46 -112q0 -67 -45.5 -111.5t-121.5 -44.5q-72 0 -117 45t-45 111z" />
    <glyph glyph-name="uni0457" unicode="&#x457;" horiz-adv-x="561" 
d="M125 1001h311v-1001h-311v1001zM352 1284q0 62 41.5 102.5t104.5 40.5q60 0 100.5 -41t40.5 -102t-40 -103t-101 -42h-4q-60 0 -101 42.5t-41 102.5zM66 1139q-61 0 -103.5 42.5t-42.5 102.5q0 61 43 102t105 41q59 0 99 -41t40 -102t-40 -103t-101 -42z" />
    <glyph glyph-name="uni0458" unicode="&#x458;" horiz-adv-x="595" 
d="M-49 -440l-31 243q131 10 184 66q34 36 48 107.5t14 218.5v806h311v-882q0 -281 -124.5 -420t-401.5 -139zM317 1124q-72 0 -116.5 45t-44.5 111q0 67 46 111.5t120 44.5q73 0 117 -44t46 -112q0 -66 -46 -111t-122 -45z" />
    <glyph glyph-name="uni0459" unicode="&#x459;" horiz-adv-x="1687" 
d="M35 -23l-33 242q68 12 111 51q42 39 55.5 115t13.5 209v407h813v-301q79 11 156 11q72 0 138 -11.5t128 -38.5t107.5 -67t72.5 -101.5t27 -138.5q0 -65 -20.5 -118.5t-55 -91t-83.5 -66t-101 -45t-113.5 -27.5t-115 -14.5t-111.5 -3.5q-184 0 -340 18v758h-215v-184
q0 -194 -31.5 -316t-111.5 -188q-95 -99 -291 -99zM993 203q58 -4 103 -4q40 0 76 7t69.5 23.5t53.5 47.5t20 73q0 56 -34.5 92t-78.5 48t-96 12q-47 0 -113 -8v-291z" />
    <glyph glyph-name="uni045A" unicode="&#x45a;" horiz-adv-x="1720" 
d="M123 0v1001h311v-337h285v337h311v-305q93 13 158 13q71 0 136.5 -12t126.5 -39.5t106 -68t71.5 -101.5t26.5 -136q0 -65 -21 -118t-55 -90t-83.5 -65.5t-101.5 -45.5t-113 -27.5t-114 -14t-110 -3.5q-182 0 -338 18v428h-285v-434h-311zM1133 500q-43 0 -105 -8v-287
q41 -6 102 -6q40 0 75.5 7.5t68.5 23.5t52.5 46.5t19.5 71.5q0 43 -18.5 74.5t-51 47.5t-67.5 23t-76 7z" />
    <glyph glyph-name="uni045B" unicode="&#x45b;" horiz-adv-x="1224" 
d="M152 1110h-148v205h148v139h311v-139h407v-205h-407v-254h4q50 65 126.5 103t158.5 38q166 0 258 -113.5t92 -322.5v-561h-311v524q0 221 -162 221q-74 0 -120 -53.5t-46 -126.5v-565h-311v1110z" />
    <glyph glyph-name="uni045C" unicode="&#x45c;" horiz-adv-x="1085" 
d="M125 1001h311v-399h33l254 399h362l-368 -432q84 -14 145 -85t107 -189q6 -15 49 -127.5t72 -167.5h-326q-7 10 -14 24.5t-12.5 27.5t-14.5 36t-14 37.5t-17 46.5t-18 49q-66 176 -207 176h-31v-397h-311v1001zM612 1126h-213l176 312h287z" />
    <glyph glyph-name="uni045E" unicode="&#x45e;" horiz-adv-x="1071" 
d="M381 84l-369 917h346l150 -493q36 -127 49 -186h8q18 84 43 188l125 491h332l-234 -659q-92 -257 -153 -377q-161 -319 -392 -395q-51 -17 -106 -23l-67 263q66 14 135 53q41 24 93 78.5t52 91.5q0 21 -12 51zM242 1415h196q2 -68 26.5 -106.5t67.5 -38.5q45 0 70.5 38.5
t30.5 106.5h196q-9 -141 -88 -215t-213 -74q-137 0 -208.5 76.5t-77.5 212.5z" />
    <glyph glyph-name="uni045F" unicode="&#x45f;" horiz-adv-x="1179" 
d="M446 0h-323v1001h313v-763h309v763h312v-1001h-326l-16 -338h-250z" />
    <glyph glyph-name="uni0490" unicode="&#x490;" horiz-adv-x="1007" 
d="M135 1380h600l33 267h223l-22 -523h-523v-1124h-311v1380z" />
    <glyph glyph-name="uni0491" unicode="&#x491;" horiz-adv-x="882" 
d="M123 1001h479l29 242h217l-19 -483h-395v-760h-311v1001z" />
    <glyph glyph-name="uni04D9" unicode="&#x4d9;" horiz-adv-x="671" 
d="M59 479q0 71 13 121h643q-6 96 -79.5 144.5t-197.5 48.5q-142 0 -282 -48l-41 207q170 72 366 72q250 0 390.5 -137.5t140.5 -372.5q0 -78 -19 -153t-59.5 -144.5t-98 -122t-141.5 -83.5t-184 -31q-95 0 -172.5 28.5t-128.5 76t-85.5 112t-49.5 135t-15 147.5zM717 387
h-369q0 -31 8.5 -63t27.5 -64.5t56 -53t88 -20.5q47 0 84 19.5t58 51.5t32.5 64.5t14.5 65.5z" />
    <glyph glyph-name="Wgrave" unicode="&#x1e80;" horiz-adv-x="1818" 
d="M31 1380h334l104 -567q18 -98 82 -483h4q28 181 90 487l117 563h332l110 -581q43 -226 74 -463h4q12 90 80 481l113 563h317l-356 -1380h-338l-117 594q-48 246 -66 426h-4q-44 -274 -80 -426l-131 -594h-342zM811 1458l-250 250h328l172 -250h-250z" />
    <glyph glyph-name="wgrave" unicode="&#x1e81;" horiz-adv-x="1554" 
d="M315 0l-292 1001h317l82 -411q44 -251 55 -328h6q8 52 19 103.5t30.5 130t22.5 92.5l107 413h245l101 -399q52 -207 73 -340h4q19 153 60 342l84 397h305l-307 -1001h-291l-94 350q-38 136 -66 314h-4q-25 -171 -63 -312l-101 -352h-293zM467 1438h287l176 -312h-213z
" />
    <glyph glyph-name="Wacute" unicode="&#x1e82;" horiz-adv-x="1818" 
d="M31 1380h334l104 -567q18 -98 82 -483h4q28 181 90 487l117 563h332l110 -581q43 -226 74 -463h4q12 90 80 481l113 563h317l-356 -1380h-338l-117 594q-48 246 -66 426h-4q-44 -274 -80 -426l-131 -594h-342zM1036 1454h-250l172 252h328z" />
    <glyph glyph-name="wacute" unicode="&#x1e83;" horiz-adv-x="1554" 
d="M315 0l-292 1001h317l82 -411q44 -251 55 -328h6q8 52 19 103.5t30.5 130t22.5 92.5l107 413h245l101 -399q52 -207 73 -340h4q19 153 60 342l84 397h305l-307 -1001h-291l-94 350q-38 136 -66 314h-4q-25 -171 -63 -312l-101 -352h-293zM850 1126h-213l176 312h287z" />
    <glyph glyph-name="Wdieresis" unicode="&#x1e84;" horiz-adv-x="1818" 
d="M31 1380h334l104 -567q18 -98 82 -483h4q28 181 90 487l117 563h332l110 -581q43 -226 74 -463h4q12 90 80 481l113 563h317l-356 -1380h-338l-117 594q-48 246 -66 426h-4q-44 -274 -80 -426l-131 -594h-342zM1141 1460q-59 0 -98 40.5t-39 98.5q0 60 39.5 101t99.5 41
q59 0 98 -40.5t39 -101.5q0 -58 -39.5 -98.5t-99.5 -40.5zM717 1460q-58 0 -98.5 41t-40.5 98q0 60 40.5 101t100.5 41q57 0 96 -40.5t39 -101.5q0 -58 -39 -98.5t-98 -40.5z" />
    <glyph glyph-name="wdieresis" unicode="&#x1e85;" horiz-adv-x="1554" 
d="M315 0l-292 1001h317l82 -411q44 -251 55 -328h6q8 52 19 103.5t30.5 130t22.5 92.5l107 413h245l101 -399q52 -207 73 -340h4q19 153 60 342l84 397h305l-307 -1001h-291l-94 350q-38 136 -66 314h-4q-25 -171 -63 -312l-101 -352h-293zM989 1139q-60 0 -100.5 42.5
t-40.5 102.5q0 62 41 102.5t104 40.5q60 0 101 -41t41 -102t-40.5 -103t-101.5 -42h-4zM561 1139q-61 0 -103 42.5t-42 102.5q0 61 42.5 102t104.5 41q59 0 99 -41t40 -102t-40 -103t-101 -42z" />
    <glyph glyph-name="uni1EA0" unicode="&#x1ea0;" horiz-adv-x="1343" 
d="M37 0l420 1380h409l430 -1380h-338l-106 354h-395l-99 -354h-321zM584 881l-82 -293h305l-86 293q-26 84 -70 266h-4q-5 -19 -27.5 -119t-35.5 -147zM655 -453q-61 0 -102 42.5t-41 103.5t41.5 102t103.5 41q60 0 100 -40t40 -103q0 -61 -40.5 -103.5t-101.5 -42.5z" />
    <glyph glyph-name="uni1EA1" unicode="&#x1ea1;" horiz-adv-x="1081" 
d="M59 285q0 190 157 286.5t431 96.5v12q0 53 -39.5 92t-142.5 39q-73 0 -149 -22t-128 -54l-57 201q162 90 389 90q121 0 208.5 -33.5t136.5 -95t71 -136.5t22 -169v-350q0 -164 17 -242h-281l-18 100h-6q-101 -123 -287 -123q-146 0 -235 91t-89 217zM397 -309
q0 63 42 104t104 41q60 0 99.5 -41t39.5 -104q0 -60 -40 -102t-101 -42t-102.5 42.5t-41.5 101.5zM367 315q0 -58 33.5 -88t88.5 -30q70 0 119 49.5t49 118.5v108q-290 0 -290 -158z" />
    <glyph glyph-name="uni1EA2" unicode="&#x1ea2;" horiz-adv-x="1343" 
d="M37 0l420 1380h409l430 -1380h-338l-106 354h-395l-99 -354h-321zM451 1704q84 162 249 162q83 0 141 -51.5t58 -122.5q0 -42 -17 -75.5t-39 -54t-51.5 -52.5t-46.5 -64l-143 31q12 38 37.5 68.5t44 54t18.5 51.5t-17.5 45.5t-43.5 17.5q-50 0 -92 -72zM584 881l-82 -293
h305l-86 293q-26 84 -70 266h-4q-5 -19 -27.5 -119t-35.5 -147z" />
    <glyph glyph-name="uni1EA3" unicode="&#x1ea3;" horiz-adv-x="1081" 
d="M383 -23q-146 0 -235 91t-89 217q0 190 157 286.5t431 96.5v12q0 53 -39.5 92t-142.5 39q-73 0 -149 -22t-128 -54l-57 201q162 90 389 90q121 0 208.5 -33.5t136.5 -95t71 -136.5t22 -169v-350q0 -164 17 -242h-281l-18 100h-6q-101 -123 -287 -123zM408 1311l-103 63
q83 162 248 162q87 0 145 -50.5t58 -127.5q0 -46 -19.5 -86.5t-44.5 -65.5t-54.5 -59.5t-43.5 -65.5l-148 33q10 39 38.5 74.5t50.5 65t22 61.5q0 30 -17.5 47.5t-43.5 17.5q-50 0 -88 -69zM367 315q0 -58 33.5 -88t88.5 -30q70 0 119 49.5t49 118.5v108q-290 0 -290 -158z
" />
    <glyph glyph-name="uni1EA4" unicode="&#x1ea4;" horiz-adv-x="1343" 
d="M358 0h-321l420 1380h407l430 -1380h-336l-106 354h-395zM582 1454h-199l182 252h217l185 -252h-201l-90 129h-4zM502 588h305l-86 293q-26 84 -70 266h-4q-5 -19 -27.5 -119t-35.5 -147zM862 1640l158 234h266l-274 -234h-150z" />
    <glyph glyph-name="uni1EA5" unicode="&#x1ea5;" horiz-adv-x="1081" 
d="M59 285q0 190 157 286.5t431 96.5v12q0 53 -39.5 92t-142.5 39q-73 0 -149 -22t-128 -54l-57 201q162 90 389 90q121 0 208.5 -33.5t136.5 -95t71 -136.5t22 -169v-350q0 -164 17 -242h-281l-18 100h-6q-101 -123 -287 -123q-146 0 -235 91t-89 217zM436 1126h-198
l184 312h217l182 -312h-198l-91 179h-4zM657 473q-290 0 -290 -158q0 -58 33.5 -88t88.5 -30q70 0 119 49.5t49 118.5v108zM903 1327h-160l158 307h238z" />
    <glyph glyph-name="uni1EA6" unicode="&#x1ea6;" horiz-adv-x="1343" 
d="M358 0h-321l420 1380h409l430 -1380h-335l-107 354h-397zM371 1454l182 252h217l184 -252h-200l-90 129h-5l-90 -129h-198zM584 881l-82 -293h305l-86 293q-26 84 -70 266h-4q-5 -19 -27.5 -119t-35.5 -147zM967 1614l-240 231h268l135 -231h-163z" />
    <glyph glyph-name="uni1EA7" unicode="&#x1ea7;" horiz-adv-x="1081" 
d="M383 -23q-146 0 -235 91t-89 217q0 190 157 286.5t431 96.5v12q0 53 -39.5 92t-142.5 39q-73 0 -149 -22t-128 -54l-57 201q162 90 389 90q121 0 208.5 -33.5t136.5 -95t71 -136.5t22 -169v-348q0 -163 17 -244h-281l-18 100h-6q-101 -123 -287 -123zM440 1126h-198
l182 312h217l182 -312h-196l-92 179h-5zM657 473q-290 0 -290 -158q0 -58 33.5 -88t88.5 -30q70 0 119 49.5t49 118.5v108zM834 1327l-218 309h234l139 -309h-155z" />
    <glyph glyph-name="uni1EA8" unicode="&#x1ea8;" horiz-adv-x="1343" 
d="M37 0l422 1380h407l430 -1380h-338l-104 354h-397l-97 -354h-323zM868 1737l-92 55q81 152 230 152q79 0 131.5 -47t52.5 -115q0 -38 -16 -68t-37 -49t-49.5 -50t-45.5 -63l-118 29q11 35 36.5 65.5t44.5 53.5t19 49q0 27 -18 44t-43 17q-55 0 -95 -73zM373 1454l182 250
h217l184 -250h-200l-90 129h-4l-91 -129h-198zM584 881l-82 -293h305l-86 293q-14 46 -37.5 139.5t-32.5 126.5h-4q-5 -19 -27.5 -119t-35.5 -147z" />
    <glyph glyph-name="uni1EA9" unicode="&#x1ea9;" horiz-adv-x="1081" 
d="M59 285q0 190 157 286.5t431 96.5v12q0 53 -39.5 92t-142.5 39q-73 0 -149 -22t-128 -54l-57 201q162 90 389 90q121 0 208.5 -33.5t136.5 -95t71 -136.5t22 -169v-348q0 -167 19 -244h-281l-20 100h-6q-101 -123 -287 -123q-146 0 -235 91t-89 217zM438 1126h-198
l182 312h217l182 -312h-198l-91 179h-4zM633 1538q78 150 233 150q76 0 130.5 -48.5t54.5 -113.5q0 -51 -24.5 -85.5t-63.5 -71.5t-58 -73l-131 29q14 41 54 86.5t40 77.5q0 26 -16 42.5t-41 16.5t-48.5 -20.5t-37.5 -46.5zM657 473q-290 0 -290 -158q0 -58 33.5 -88
t88.5 -30q70 0 119 49.5t49 118.5v108z" />
    <glyph glyph-name="uni1EAA" unicode="&#x1eaa;" horiz-adv-x="1343" 
d="M37 0l420 1380h409l430 -1380h-338l-106 354h-395l-99 -354h-321zM383 1739q-1 107 44.5 169t123.5 62q55 0 131 -39q68 -35 88 -35q25 0 37 17t16 63h144q8 -235 -168 -235q-27 0 -54 8t-39 14t-44 23q-4 2 -16.5 8t-15.5 7.5t-12 5.5t-13.5 5t-11 2t-13.5 1
q-44 0 -50 -76h-147zM344 1454l205 252h233l207 -252h-219l-102 127h-4l-103 -127h-217zM584 881l-82 -293h305l-86 293q-26 84 -70 266h-4q-5 -19 -27.5 -119t-35.5 -147z" />
    <glyph glyph-name="uni1EAB" unicode="&#x1eab;" horiz-adv-x="1081" 
d="M59 285q0 190 157 286.5t431 96.5v12q0 53 -39.5 92t-142.5 39q-73 0 -149 -22t-128 -54l-57 201q162 90 389 90q121 0 208.5 -33.5t136.5 -95t71 -136.5t22 -169v-350q0 -164 17 -242h-281l-18 100h-6q-101 -123 -287 -123q-146 0 -235 91t-89 217zM256 1425
q-1 107 44.5 169.5t123.5 62.5q55 0 131 -39q68 -35 88 -35q27 0 38.5 17t14.5 65h144q8 -238 -168 -238q-20 0 -40.5 5t-32 9.5t-34.5 16.5t-30 15q-58 28 -82 28q-44 0 -50 -76h-147zM440 1126h-202l194 267h215l195 -267h-203l-96 146h-4zM367 315q0 -58 33.5 -88
t88.5 -30q70 0 119 49.5t49 118.5v108q-290 0 -290 -158z" />
    <glyph glyph-name="uni1EAC" unicode="&#x1eac;" horiz-adv-x="1343" 
d="M37 0l420 1380h409l430 -1380h-338l-106 354h-395l-99 -354h-321zM346 1454l205 252h233l207 -252h-219l-102 127h-4l-103 -127h-217zM502 588h305l-86 293q-26 84 -70 266h-4q-5 -19 -27.5 -119t-35.5 -147zM651 -444q-59 0 -100 41.5t-41 97.5q0 60 41.5 100.5
t101.5 40.5q59 0 98.5 -40.5t39.5 -100.5q0 -56 -40.5 -97.5t-99.5 -41.5z" />
    <glyph glyph-name="uni1EAD" unicode="&#x1ead;" horiz-adv-x="1081" 
d="M383 -23q-146 0 -235 91t-89 217q0 190 157 286.5t431 96.5v12q0 53 -39.5 92t-142.5 39q-73 0 -149 -22t-128 -54l-57 201q162 90 389 90q121 0 208.5 -33.5t136.5 -95t71 -136.5t22 -169v-350q0 -164 17 -242h-281l-18 100h-6q-101 -123 -287 -123zM231 1126l205 312
h209l203 -312h-203l-102 179h-4l-105 -179h-203zM541 -453q-61 0 -102.5 42.5t-41.5 101.5q0 63 42 104t104 41q60 0 99.5 -41t39.5 -104q0 -60 -40 -102t-101 -42zM657 473q-290 0 -290 -158q0 -58 33.5 -88t88.5 -30q70 0 119 49.5t49 118.5v108z" />
    <glyph glyph-name="uni1EAE" unicode="&#x1eae;" horiz-adv-x="1343" 
d="M35 0l422 1380h409l430 -1380h-338l-104 354h-397l-99 -354h-323zM664 1430q-131 0 -203.5 69t-85.5 180h141q11 -42 49 -68t103 -26q129 0 155 94h135q-11 -105 -87.5 -177t-206.5 -72zM502 588h305l-86 293q-26 84 -70 266h-4q-5 -19 -27.5 -119t-35.5 -147zM729 1659
h-166l144 233h276z" />
    <glyph glyph-name="uni1EAF" unicode="&#x1eaf;" horiz-adv-x="1081" 
d="M59 285q0 190 157 286.5t431 96.5v12q0 53 -39.5 92t-142.5 39q-73 0 -149 -22t-128 -54l-57 201q162 90 389 90q121 0 208.5 -33.5t136.5 -95t71 -136.5t22 -169v-350q0 -164 17 -242h-281l-18 100h-6q-101 -123 -287 -123q-146 0 -235 91t-89 217zM209 1376h147
q8 -56 51.5 -90.5t110.5 -34.5q73 0 116 35.5t48 89.5h147q-5 -131 -89 -210t-222 -79q-140 0 -223 81t-86 208zM657 473q-290 0 -290 -158q0 -58 33.5 -88t88.5 -30q70 0 119 49.5t49 118.5v108zM420 1356l174 301h240l-252 -301h-162z" />
    <glyph glyph-name="uni1EB0" unicode="&#x1eb0;" horiz-adv-x="1343" 
d="M358 0h-321l420 1380h409l430 -1380h-335l-107 354h-397zM385 1679h141q11 -42 49 -68t103 -26q127 0 153 94h138q-13 -105 -89.5 -177t-205.5 -72q-131 0 -203.5 69t-85.5 180zM502 588h305l-86 293q-14 46 -37.5 139.5t-32.5 126.5h-4q-5 -19 -27.5 -119t-35.5 -147z
M369 1892h276l141 -233h-163z" />
    <glyph glyph-name="uni1EB1" unicode="&#x1eb1;" horiz-adv-x="1081" 
d="M59 285q0 190 157 286.5t431 96.5v12q0 24 -7.5 44.5t-25.5 41.5t-57 33t-94 12q-73 0 -148 -21.5t-127 -54.5l-57 201q162 90 389 90q121 0 208.5 -33.5t136.5 -95t71 -136.5t22 -169v-348q0 -163 17 -244h-281l-18 100h-6q-101 -123 -287 -123q-146 0 -235 91t-89 217z
M537 1087q-140 0 -223.5 80.5t-86.5 206.5h148q9 -56 52.5 -89.5t111.5 -33.5q73 0 115.5 35t47.5 88h148q-5 -130 -89.5 -208.5t-223.5 -78.5zM657 473q-290 0 -290 -158q0 -58 33.5 -88t88.5 -30q70 0 119 49.5t49 118.5v108zM479 1356l-252 301h240l176 -301h-164z" />
    <glyph glyph-name="uni1EB2" unicode="&#x1eb2;" horiz-adv-x="1343" 
d="M37 0l420 1380h409l430 -1380h-338l-104 354h-397l-99 -354h-321zM676 1430q-132 0 -205 69t-84 180h141q12 -42 49.5 -69t102.5 -27q128 0 154 96h137q-11 -105 -88 -177t-207 -72zM547 1819l-90 55q78 149 233 149q76 0 129 -47.5t53 -111.5q0 -40 -16 -72.5t-37 -51
t-49 -48.5t-45 -60l-127 29q14 41 54 87.5t40 78.5q0 25 -16 42t-41 17q-46 0 -88 -67zM502 588h305l-86 293q-26 84 -70 266h-4q-5 -19 -27.5 -119t-35.5 -147z" />
    <glyph glyph-name="uni1EB3" unicode="&#x1eb3;" horiz-adv-x="1081" 
d="M59 285q0 190 157 286.5t431 96.5v12q0 53 -39.5 92t-142.5 39q-73 0 -148 -21.5t-129 -54.5l-57 201q162 90 389 90q121 0 208.5 -33.5t136.5 -95t71 -136.5t22 -169v-348q0 -163 17 -244h-281l-18 100h-6q-101 -123 -287 -123q-146 0 -235 91t-89 217zM223 1374h148
q8 -57 50.5 -91t110.5 -34q73 0 116 35.5t48 89.5h148q-5 -130 -90 -208.5t-222 -78.5q-140 0 -223 80t-86 207zM309 1571q77 151 232 151q77 0 131.5 -49t54.5 -114q0 -39 -16 -70t-37 -50t-49 -48.5t-45 -59.5l-129 29q11 35 35 63.5t41.5 50.5t17.5 48t-17 42.5t-41 16.5
q-51 0 -86 -68zM657 473q-290 0 -290 -158q0 -58 33.5 -88t88.5 -30q70 0 119 49.5t49 118.5v108z" />
    <glyph glyph-name="uni1EB4" unicode="&#x1eb4;" horiz-adv-x="1343" 
d="M358 0h-321l420 1380h409l428 -1380h-336l-106 354h-395zM379 1741q0 98 45.5 157.5t122.5 59.5q65 0 131 -39q64 -35 88 -35q25 0 37 17t16 63h144q8 -235 -168 -235q-58 0 -138 45q-52 28 -82 28q-40 0 -47 -61h-149zM662 1430q-132 0 -205 69t-84 180h141
q11 -42 49 -68t103 -26q127 0 153 94h137q-11 -104 -88 -176.5t-206 -72.5zM584 881l-82 -293h305l-86 293q-26 84 -70 266h-4q-5 -19 -27.5 -119t-35.5 -147z" />
    <glyph glyph-name="uni1EB5" unicode="&#x1eb5;" horiz-adv-x="1081" 
d="M59 285q0 190 157 286.5t431 96.5v12q0 53 -39.5 92t-142.5 39q-73 0 -149 -22t-128 -54l-57 201q162 90 389 90q121 0 208.5 -33.5t136.5 -95t71 -136.5t22 -169v-350q0 -164 17 -242h-281l-18 100h-6q-101 -123 -287 -123q-146 0 -235 91t-89 217zM535 1090
q-139 0 -217.5 78.5t-81.5 205.5h147q8 -56 49 -93.5t103 -37.5q69 0 109.5 38.5t45.5 92.5h148q-5 -129 -85 -206.5t-218 -77.5zM395 1456h-149q0 98 45.5 157.5t122.5 59.5q53 0 133 -39q7 -3 23.5 -11.5t24.5 -12.5t19.5 -7.5t20.5 -3.5q26 0 37.5 17t15.5 65h143
q9 -237 -167 -237q-16 0 -31 2.5t-31.5 8t-25.5 9.5t-27.5 13t-24.5 12q-4 2 -16.5 8t-15.5 7.5t-12 5.5t-13.5 5t-11 2t-13.5 1q-40 0 -47 -62zM657 473q-290 0 -290 -158q0 -58 33.5 -88t88.5 -30q70 0 119 49.5t49 118.5v108z" />
    <glyph glyph-name="uni1EB6" unicode="&#x1eb6;" horiz-adv-x="1343" 
d="M37 0l420 1380h409l430 -1380h-338l-106 354h-395l-99 -354h-321zM375 1737h166q5 -40 33.5 -67.5t87.5 -27.5q110 0 129 95h159q-3 -118 -74.5 -188t-213.5 -70q-144 0 -214 69.5t-73 188.5zM502 588h305l-86 293q-26 84 -70 266h-4q-5 -19 -27.5 -119t-35.5 -147z
M512 -305q0 60 41.5 100.5t101.5 40.5q59 0 98.5 -40.5t39.5 -100.5q0 -56 -40.5 -97.5t-99.5 -41.5t-100 41.5t-41 97.5z" />
    <glyph glyph-name="uni1EB7" unicode="&#x1eb7;" horiz-adv-x="1081" 
d="M383 -23q-146 0 -235 91t-89 217q0 190 157 286.5t431 96.5v12q0 53 -39.5 92t-142.5 39q-73 0 -149 -22t-128 -54l-57 201q162 90 389 90q121 0 208.5 -33.5t136.5 -95t71 -136.5t22 -169v-350q0 -164 17 -242h-281l-18 100h-6q-101 -123 -287 -123zM539 1126
q-137 0 -209 81t-74 210h162q17 -125 121 -125q59 0 90.5 35.5t34.5 89.5h161q-2 -133 -76 -212t-210 -79zM541 -453q-61 0 -102.5 42.5t-41.5 101.5q0 63 42 104t104 41q60 0 99.5 -41t39.5 -104q0 -60 -40 -102t-101 -42zM657 473q-290 0 -290 -158q0 -58 33.5 -88
t88.5 -30q70 0 119 49.5t49 118.5v108z" />
    <glyph glyph-name="uni1EB8" unicode="&#x1eb8;" horiz-adv-x="1093" 
d="M1016 0h-879v1380h850v-256h-538v-286h507v-254h-507v-328h567v-256zM547 -444q-59 0 -100 41.5t-41 97.5q0 60 41.5 100.5t101.5 40.5q58 0 97.5 -40.5t39.5 -100.5q0 -57 -40 -98t-99 -41z" />
    <glyph glyph-name="uni1EB9" unicode="&#x1eb9;" horiz-adv-x="1081" 
d="M602 -20q-253 0 -393.5 136t-140.5 373q0 98 31 191t90.5 171t159 125.5t224.5 47.5q94 0 170.5 -28.5t127 -76t85 -112.5t49.5 -135.5t15 -147.5q0 -66 -10 -123h-645q6 -92 86 -141t196 -49q152 0 277 43l41 -211q-149 -63 -363 -63zM541 -453q-61 0 -102.5 42.5
t-41.5 101.5q0 63 42 104t104 41q60 0 99.5 -41t39.5 -104q0 -60 -40 -102t-101 -42zM555 817q-47 0 -84 -19.5t-59 -51.5t-34.5 -65.5t-15.5 -66.5h369q0 32 -8 64t-26 65t-54.5 53.5t-87.5 20.5z" />
    <glyph glyph-name="uni1EBA" unicode="&#x1eba;" horiz-adv-x="1093" 
d="M1016 0h-879v1380h850v-256h-538v-286h507v-254h-507v-328h567v-256zM457 1645l-99 59q81 162 250 162q83 0 141 -51.5t58 -122.5q0 -42 -17 -75.5t-39 -54t-51.5 -52.5t-46.5 -64l-145 31q13 38 39 69t44.5 54.5t18.5 52.5q0 27 -17 44t-44 17q-49 0 -92 -69z" />
    <glyph glyph-name="uni1EBB" unicode="&#x1ebb;" horiz-adv-x="1081" 
d="M602 -20q-253 0 -393.5 136t-140.5 373q0 98 31 191t90.5 171t159 125.5t224.5 47.5q94 0 170.5 -28.5t127 -76t85 -112.5t49.5 -135.5t15 -147.5q0 -66 -10 -123h-645q6 -92 86 -141t196 -49q152 0 277 43l41 -211q-149 -63 -363 -63zM303 1372q81 162 250 162
q87 0 145 -50.5t58 -127.5q0 -46 -19.5 -86.5t-44.5 -65.5t-54.5 -59.5t-43.5 -65.5l-150 33q9 32 28.5 61t37 47t31.5 42.5t14 50.5q0 30 -17 47.5t-44 17.5q-50 0 -88 -69zM362 614h369q0 32 -8 64t-26 65t-54.5 53.5t-87.5 20.5q-47 0 -84 -19.5t-59 -51.5t-34.5 -65.5
t-15.5 -66.5z" />
    <glyph glyph-name="uni1EBC" unicode="&#x1ebc;" horiz-adv-x="1093" 
d="M137 0v1380h848v-256h-536v-286h505v-254h-505v-328h565v-256h-877zM297 1464q-3 126 40 193t118 67q65 0 131 -41q67 -38 90 -38q26 0 37.5 18t17.5 70h139q3 -134 -37 -195t-122 -61q-61 0 -133 39q-6 3 -17 9.5t-16.5 9t-14 6.5t-14 6t-13 3.5t-14.5 1.5
q-43 0 -49 -88h-143z" />
    <glyph glyph-name="uni1EBD" unicode="&#x1ebd;" horiz-adv-x="1081" 
d="M68 489q0 98 31 191t90.5 171t159 125.5t224.5 47.5q94 0 170.5 -28.5t127 -76t85 -112.5t49.5 -135.5t15 -147.5q0 -66 -10 -123h-645q6 -92 86 -141t196 -49q152 0 277 43l41 -211q-149 -63 -363 -63q-253 0 -393.5 136t-140.5 373zM248 1141q-4 128 42 199t126 71
q63 0 133 -41q8 -4 23.5 -13t23.5 -13.5t19 -8.5t20 -4q25 0 37 18.5t16 71.5h143q8 -262 -167 -262q-9 0 -18 0.5t-18.5 2.5t-15.5 3.5t-16.5 5t-14.5 5t-15.5 6.5t-13.5 6t-14.5 7.5t-13.5 6.5q-10 5 -23.5 12.5t-20.5 11t-16.5 6.5t-19.5 3q-43 0 -49 -94h-147zM555 817
q-47 0 -84 -19.5t-59 -51.5t-34.5 -65.5t-15.5 -66.5h369q0 32 -8 64t-26 65t-54.5 53.5t-87.5 20.5z" />
    <glyph glyph-name="uni1EBE" unicode="&#x1ebe;" horiz-adv-x="1093" 
d="M137 0v1380h850v-256h-538v-286h507v-254h-507v-328h567v-256h-879zM276 1454l185 252h215l186 -252h-200l-93 129h-4l-90 -129h-199zM907 1640h-149l155 234h269z" />
    <glyph glyph-name="uni1EBF" unicode="&#x1ebf;" horiz-adv-x="1081" 
d="M602 -20q-253 0 -393.5 136t-140.5 373q0 98 31 191t90.5 171t159 125.5t224.5 47.5q94 0 170.5 -28.5t127 -76t85 -112.5t49.5 -135.5t15 -147.5q0 -66 -10 -123h-645q6 -92 86 -141t196 -49q152 0 277 43l41 -211q-149 -63 -363 -63zM285 1126l184 312h217l182 -312
h-198l-90 179h-5l-92 -179h-198zM362 614h369q0 32 -8 64t-26 65t-54.5 53.5t-87.5 20.5q-47 0 -84 -19.5t-59 -51.5t-34.5 -65.5t-15.5 -66.5zM950 1327h-159l157 307h238z" />
    <glyph glyph-name="uni1EC0" unicode="&#x1ec0;" horiz-adv-x="1093" 
d="M137 0v1380h850v-256h-538v-286h507v-254h-507v-328h567v-256h-879zM471 1454h-199l185 252h217l184 -252h-201l-90 129h-4zM631 1845h268l133 -231h-162z" />
    <glyph glyph-name="uni1EC1" unicode="&#x1ec1;" horiz-adv-x="1081" 
d="M68 489q0 98 31 191t90.5 171t159 125.5t224.5 47.5q94 0 170.5 -28.5t127 -76t85 -112.5t49.5 -135.5t15 -147.5q0 -66 -10 -123h-645q6 -92 86 -141t196 -49q152 0 277 43l41 -211q-149 -63 -363 -63q-253 0 -393.5 136t-140.5 373zM279 1126l182 312h217l184 -312
h-198l-93 179h-4l-90 -179h-198zM362 614h369q0 32 -8 64t-26 65t-54.5 53.5t-87.5 20.5q-47 0 -84 -19.5t-59 -51.5t-34.5 -65.5t-15.5 -66.5zM870 1327l-217 309h234l139 -309h-156z" />
    <glyph glyph-name="uni1EC2" unicode="&#x1ec2;" horiz-adv-x="1093" 
d="M137 1380h848v-256h-536v-286h505v-254h-505v-328h567v-256h-879v1380zM774 1739l-90 55q78 150 229 150q79 0 132 -46.5t53 -115.5q0 -37 -16 -67.5t-37.5 -49.5t-49.5 -50t-45 -63l-121 29q12 35 38 65.5t44.5 54t18.5 50.5q0 26 -18 43.5t-44 17.5q-50 0 -94 -73z
M279 1454l184 252h215l186 -252h-200l-93 129h-4l-90 -129h-198z" />
    <glyph glyph-name="uni1EC3" unicode="&#x1ec3;" horiz-adv-x="1081" 
d="M602 -20q-253 0 -393.5 136t-140.5 373q0 98 31 191t90.5 171t159 125.5t224.5 47.5q94 0 170.5 -28.5t127 -76t85 -112.5t49.5 -135.5t15 -147.5t-12 -123h-643q6 -92 86 -141t196 -49q152 0 277 43l41 -211q-149 -63 -363 -63zM268 1126l185 312h217l182 -312h-199
l-90 179h-4l-92 -179h-199zM756 1481l-92 57q82 150 233 150q76 0 130 -48.5t54 -113.5q0 -32 -10 -58t-27 -45.5t-35 -36.5t-39 -41t-34 -49l-131 29q14 41 54 86.5t40 77.5q0 26 -16 42.5t-41 16.5q-44 0 -86 -67zM362 614h369q0 32 -8 64t-26 65t-54.5 53.5t-87.5 20.5
q-47 0 -84 -19.5t-59 -51.5t-34.5 -65.5t-15.5 -66.5z" />
    <glyph glyph-name="uni1EC4" unicode="&#x1ec4;" horiz-adv-x="1093" 
d="M137 1380h850v-256h-538v-286h507v-254h-507v-328h567v-256h-879v1380zM309 1739q-1 107 44.5 169t123.5 62q55 0 131 -39q68 -35 88 -35q25 0 37.5 17t16.5 63h143q8 -235 -168 -235q-27 0 -54 8t-39 14t-44 23q-4 2 -16.5 8t-15.5 7.5t-12 5.5t-13.5 5t-11 2t-13.5 1
q-43 0 -49 -76h-148zM487 1454h-217l205 252h234l206 -252h-219l-102 127h-4z" />
    <glyph glyph-name="uni1EC5" unicode="&#x1ec5;" horiz-adv-x="1081" 
d="M68 489q0 98 31 191t90.5 171t159 125.5t224.5 47.5q94 0 170.5 -28.5t127 -76t85 -112.5t49.5 -135.5t15 -147.5q0 -66 -10 -123h-645q6 -92 86 -141t196 -49q152 0 277 43l41 -211q-149 -63 -363 -63q-253 0 -393.5 136t-140.5 373zM279 1425q-1 107 44 169.5t123 62.5
q56 0 132 -39q68 -35 88 -35q27 0 38.5 17t14.5 65h143q8 -238 -168 -238q-20 0 -40.5 5t-32 9.5t-34.5 16.5t-30 15q-58 28 -82 28q-43 0 -49 -76h-147zM260 1126l195 267h215l194 -267h-202l-97 146h-4l-98 -146h-203zM362 614h369q0 32 -8 64t-26 65t-54.5 53.5
t-87.5 20.5q-47 0 -84 -19.5t-59 -51.5t-34.5 -65.5t-15.5 -66.5z" />
    <glyph glyph-name="uni1EC6" unicode="&#x1ec6;" horiz-adv-x="1093" 
d="M1016 0h-879v1380h850v-256h-538v-286h507v-254h-507v-328h567v-256zM463 1454h-217l205 252h233l207 -252h-219l-103 127h-4zM426 -305q0 60 41.5 100.5t101.5 40.5q59 0 98.5 -40.5t39.5 -100.5q0 -56 -40.5 -97.5t-99.5 -41.5t-100 41.5t-41 97.5z" />
    <glyph glyph-name="uni1EC7" unicode="&#x1ec7;" horiz-adv-x="1081" 
d="M602 -20q-253 0 -393.5 136t-140.5 373q0 98 31 191t90.5 171t159 125.5t224.5 47.5q94 0 170.5 -28.5t127 -76t85 -112.5t49.5 -135.5t15 -147.5q0 -66 -10 -123h-645q6 -92 86 -141t196 -49q152 0 277 43l41 -211q-149 -63 -363 -63zM231 1126l205 312h209l203 -312
h-203l-102 179h-4l-105 -179h-203zM541 -453q-61 0 -102.5 42.5t-41.5 103.5t42 102t104 41q60 0 99.5 -40.5t39.5 -102.5q0 -61 -40 -103.5t-101 -42.5zM362 614h369q0 32 -8 64t-26 65t-54.5 53.5t-87.5 20.5q-47 0 -84 -19.5t-59 -51.5t-34.5 -65.5t-15.5 -66.5z" />
    <glyph glyph-name="uni1EC8" unicode="&#x1ec8;" horiz-adv-x="583" 
d="M137 1380h312v-1380h-312v1380zM72 1704q81 162 247 162q84 0 142.5 -51.5t58.5 -122.5q0 -42 -17 -75.5t-39.5 -54t-52 -52.5t-46.5 -64l-144 31q13 38 39 69t44 54.5t18 52.5q0 27 -17.5 44t-42.5 17q-50 0 -92 -72z" />
    <glyph glyph-name="uni1EC9" unicode="&#x1ec9;" horiz-adv-x="561" 
d="M125 1001h311v-1001h-311v1001zM145 1309l-100 63q81 162 248 162q87 0 145 -50.5t58 -127.5q0 -46 -19.5 -86.5t-44.5 -65.5t-54.5 -59.5t-43.5 -65.5l-148 33q10 39 38.5 74.5t50.5 65t22 61.5q0 30 -17.5 47.5t-43.5 17.5q-49 0 -91 -69z" />
    <glyph glyph-name="uni1ECA" unicode="&#x1eca;" horiz-adv-x="583" 
d="M449 0h-312v1380h312v-1380zM152 -305q0 60 41.5 100.5t101.5 40.5q58 0 97.5 -40.5t39.5 -100.5q0 -57 -40 -98t-99 -41t-100 41.5t-41 97.5z" />
    <glyph glyph-name="uni1ECB" unicode="&#x1ecb;" horiz-adv-x="561" 
d="M125 0v1001h311v-1001h-311zM117 1280q0 67 46 111.5t120 44.5q73 0 117 -44t46 -112q0 -67 -45.5 -111.5t-121.5 -44.5q-72 0 -117 45t-45 111zM137 -309q0 63 42 104t104 41q60 0 99.5 -41t39.5 -104q0 -60 -40 -102t-101 -42t-102.5 42.5t-41.5 101.5z" />
    <glyph glyph-name="uni1ECC" unicode="&#x1ecc;" horiz-adv-x="1468" 
d="M72 682q0 206 82 370t236 258.5t353 94.5q155 0 281 -55.5t207 -151t124.5 -222t43.5 -271.5q0 -338 -185 -533t-493 -195q-199 0 -348 94.5t-225 253t-76 357.5zM737 1157q-156 0 -246 -131.5t-90 -337.5q0 -207 90.5 -335t245.5 -128q103 0 179 61.5t114.5 167
t38.5 240.5q0 127 -37.5 231t-114 168t-180.5 64zM735 -444q-59 0 -100 41.5t-41 97.5q0 60 41.5 100.5t101.5 40.5q58 0 97.5 -40.5t39.5 -100.5q0 -57 -40 -98t-99 -41z" />
    <glyph glyph-name="uni1ECD" unicode="&#x1ecd;" horiz-adv-x="1181" 
d="M68 494q0 243 146.5 387.5t389.5 144.5q228 0 369 -143t141 -371q0 -133 -44.5 -237.5t-119.5 -168t-168 -96.5t-196 -33q-226 0 -372 140t-146 377zM594 803q-70 0 -118 -46t-67.5 -111.5t-19.5 -143.5q0 -133 54 -217t151 -84q92 0 145.5 83t53.5 220q0 78 -19.5 143.5
t-66 110.5t-113.5 45zM590 -453q-61 0 -102.5 42.5t-41.5 103.5t42 102t104 41q60 0 99.5 -40t39.5 -103q0 -61 -40 -103.5t-101 -42.5z" />
    <glyph glyph-name="uni1ECE" unicode="&#x1ece;" horiz-adv-x="1468" 
d="M72 682q0 206 82 370t236 258.5t353 94.5q155 0 281 -55.5t207 -151t124.5 -222t43.5 -271.5q0 -338 -185 -533t-493 -195q-199 0 -348 94.5t-225 253t-76 357.5zM401 688q0 -207 90.5 -335t245.5 -128q103 0 179 61.5t114.5 167t38.5 240.5q0 127 -37.5 231t-114 168
t-180.5 64q-156 0 -246 -131.5t-90 -337.5zM612 1645l-100 61q84 162 250 162q84 0 142.5 -51.5t58.5 -122.5q0 -42 -17 -75.5t-39.5 -54t-52.5 -52.5t-47 -64l-143 31q13 38 38.5 69t43.5 54.5t18 52.5q0 26 -17 43.5t-42 17.5q-52 0 -93 -71z" />
    <glyph glyph-name="uni1ECF" unicode="&#x1ecf;" horiz-adv-x="1181" 
d="M68 494q0 244 146 388t390 144q228 0 369 -143t141 -371q0 -133 -44.5 -237.5t-119.5 -168t-168 -96.5t-196 -33q-226 0 -372 140t-146 377zM389 502q0 -133 54 -217t151 -84q92 0 145.5 83t53.5 220q0 78 -19.5 143.5t-66 110.5t-113.5 45q-70 0 -118 -46t-67.5 -111.5
t-19.5 -143.5zM457 1311l-103 61q82 164 250 164q86 0 144.5 -50.5t58.5 -127.5q0 -38 -12.5 -70.5t-32.5 -58t-41 -47.5t-43 -49t-33 -54l-149 35q8 32 27.5 61t37 47t31.5 42.5t14 50.5q0 30 -17 47.5t-44 17.5q-50 0 -88 -69z" />
    </font>
</defs>
</svg>
