<?xml version="1.0" standalone="no"?>
<!DOCTYPE svg PUBLIC "-//W3C//DTD SVG 1.1//EN" "http://www.w3.org/Graphics/SVG/1.1/DTD/svg11.dtd" >
<svg xmlns="http://www.w3.org/2000/svg" xmlns:xlink="http://www.w3.org/1999/xlink" version="1.1">
<metadata>
Created by FontForge 20201107 at Tue Oct 21 15:40:25 2025
 By 
(c) 1992, 1994, 1997, 2000, 2004 Adobe Systems Incorporated. All rights reserved.
</metadata>
<defs>
<font id="latenight-Regular" horiz-adv-x="614" >
  <font-face 
    font-family="latenight"
    font-weight="400"
    font-stretch="normal"
    units-per-em="2048"
    panose-1="0 0 0 0 0 0 0 0 0 0"
    ascent="1536"
    descent="-512"
    x-height="961"
    cap-height="1380"
    bbox="-369 -575 2238 1968"
    underline-thickness="102"
    underline-position="-204"
    unicode-range="U+000D-FB04"
  />
<missing-glyph horiz-adv-x="1024" 
d="M0 0v1434h1024v-1434h-1024zM164 1331l348 -522l348 522h-696zM922 1239l-349 -522l349 -522v1044zM164 102h696l-348 523zM451 717l-349 522v-1044z" />
    <glyph glyph-name="uniE003" unicode="ffj" horiz-adv-x="1656" 
d="M53 961h172v329q0 101 72.5 173.5t173.5 72.5h158q101 0 173 -72.5t72 -173.5v-55h-112v37q0 63 -45 108t-109 45h-119q-63 0 -108 -45t-45 -108v-277l-76 -22v-12h686v329q0 101 72.5 173.5t173.5 72.5h156q101 0 173 -72.5t72 -173.5v-55h-110v37q0 63 -45.5 108
t-108.5 45h-119q-63 0 -108 -45t-45 -108v-277l-76 -22v-12h612v-1319q0 -89 -64 -153t-153 -64h-137q-90 0 -153.5 63.5t-63.5 153.5v51h108v-35q0 -56 34 -89.5t91 -33.5h105q56 0 89.5 33.5t33.5 89.5v1192h-426v-850h-111v850h-610v-850h-111v850h-172v111z" />
    <glyph glyph-name="uniE004" unicode="fj" horiz-adv-x="927" 
d="M53 961h172v329q0 101 72.5 173.5t173.5 72.5h158q101 0 173 -72.5t72 -173.5v-55h-112v37q0 63 -45 108t-109 45h-119q-63 0 -108 -45t-45 -108v-277l-76 -22v-12h614l-2 -1319q0 -90 -63.5 -153.5t-153.5 -63.5h-137q-89 0 -153 64t-64 153v51h111v-35q0 -56 34 -89.5
t89 -33.5h104q57 0 90 33.5t33 89.5v1192h-426v-850h-111v850h-172v111z" />
    <glyph glyph-name="f_f" unicode="ff" horiz-adv-x="1646" 
d="M53 850v111h172v329q0 101 72.5 173.5t173.5 72.5h158q101 0 173 -72.5t72 -173.5v-55h-112v37q0 63 -45 108t-109 45h-119q-63 0 -108 -45t-45 -108v-277l-76 -22v-12h686v329q0 101 72.5 173.5t173.5 72.5h156q101 0 173 -72.5t72 -173.5v-55h-110v37q0 63 -45.5 108
t-108.5 45h-119q-63 0 -108 -45t-45 -108v-277l-76 -22v-12h612v-111h-536v-850h-111v850h-610v-850h-111v850h-172z" />
    <glyph glyph-name="f_f_i" unicode="ffi" horiz-adv-x="1751" 
d="M225 850h-172v111h172v329q0 101 72.5 173.5t173.5 72.5h158q101 0 173 -72.5t72 -173.5v-55h-112v37q0 63 -45 108t-109 45h-119q-63 0 -108 -45t-45 -108v-277l-76 -22v-12h686v329q0 101 72.5 173.5t173.5 72.5h156q101 0 173 -72.5t72 -173.5v-55h-110v37
q0 63 -45.5 108t-108.5 45h-119q-63 0 -108 -45t-45 -108v-277l-76 -22v-12h612l2 -803q0 -25 17.5 -42.5t42.5 -17.5h43v-98h-74q-58 0 -99.5 41t-41.5 100v709h-426v-850h-111v850h-610v-850h-111v850zM1593 850h-108h108z" />
    <glyph glyph-name="f_f_l" unicode="ffl" horiz-adv-x="1763" 
d="M53 961h172v329q0 101 72.5 173.5t173.5 72.5h158q101 0 173 -72.5t72 -173.5v-55h-110v37q0 63 -46 108t-110 45h-119q-63 0 -108 -45t-45 -108v-277l-76 -22v-12h684v329q0 101 72.5 173.5t173.5 72.5h158q101 0 173 -72.5t72 -173.5v-1110q0 -29 20 -49t48 -20h49
v-111h-98q-59 0 -94 41.5t-35 95.5v713h-428v-850h-111v850h-608v-850h-111v850h-172v111zM979 973v-12h504v319q-3 60 -48.5 102.5t-107.5 42.5h-119q-63 0 -108 -45t-45 -108v-277z" />
    <glyph glyph-name="f_i" unicode="fi" horiz-adv-x="1030" 
d="M53 850v111h172v329q0 101 72.5 173.5t173.5 72.5h158q101 0 173 -72.5t72 -173.5v-55h-112v37q0 63 -45 108t-109 45h-119q-63 0 -108 -45t-45 -108v-277l-76 -22v-12h614v-803q0 -25 18.5 -42.5t43.5 -17.5h43v-98h-74q-59 0 -100 41t-41 100v709h-428v-850h-111v850
h-172zM874 850h-110h110z" />
    <glyph glyph-name="f_l" unicode="fl" horiz-adv-x="1044" 
d="M53 850v111h172v329q0 101 72.5 173.5t173.5 72.5h158q101 0 173 -72.5t72 -173.5v-1110q0 -29 20 -49t48 -20h49v-111h-98q-59 0 -94 41.5t-35 95.5v713h-428v-850h-111v850h-172zM260 961h504v319q-3 60 -48.5 102.5t-107.5 42.5h-119q-63 0 -108 -45t-45 -108v-277
l-76 -22v-12z" />
    <glyph glyph-name=".notdef" horiz-adv-x="1024" 
d="M0 0v1434h1024v-1434h-1024zM164 1331l348 -522l348 522h-696zM922 1239l-349 -522l349 -522v1044zM164 102h696l-348 523zM451 717l-349 522v-1044z" />
    <glyph glyph-name="uni0000" horiz-adv-x="0" 
 />
    <glyph glyph-name="uni0000" horiz-adv-x="0" 
 />
    <glyph glyph-name="uni000D" unicode="&#xd;" horiz-adv-x="512" 
 />
    <glyph glyph-name="space" unicode=" " horiz-adv-x="569" 
 />
    <glyph glyph-name="exclam" unicode="!" horiz-adv-x="237" 
d="M174 197h-108l-3 1503h111v-1503zM182 88q9 -26 -3 -50.5t-38 -33.5t-50.5 2.5t-33.5 36.5q-9 26 2.5 51.5t36.5 34.5q26 9 51.5 -3t34.5 -38z" />
    <glyph glyph-name="quotedbl" unicode="&#x22;" horiz-adv-x="407" 
d="M250 1380h104l-20 -358h-64zM74 1022l-21 358h105l-21 -358h-63z" />
    <glyph glyph-name="numbersign" unicode="#" horiz-adv-x="1232" 
d="M1126 557h-262l-71 -151h264l-53 -113h-265l-137 -293h-123l137 293h-176l-139 -293h-123l139 293h-264l53 113h265l71 151h-264l53 113h263l141 297h123l-142 -297h179l139 297h123l-139 -297h262zM670 406l71 151h-178l-71 -151h178z" />
    <glyph glyph-name="dollar" unicode="$" horiz-adv-x="1167" 
d="M53 385v53h111v-35q0 -63 45 -108t108 -45h533q71 0 111 40t43 107v322q0 63 -45.5 108t-108.5 45h-551q-101 0 -173.5 72.5t-72.5 173.5v314q2 101 73.5 172t172.5 71h219v140h111v-140h239q101 0 173.5 -72t72.5 -173v-56h-110v37q0 64 -45.5 109t-108.5 45h-533
q-61 0 -105.5 -42t-47.5 -102v-284q0 -63 45 -108.5t108 -45.5h551q101 0 173.5 -72.5t72.5 -173.5v-352q0 -107 -66 -176.5t-180 -69.5h-239v-139h-111v139h-219q-101 0 -173.5 72.5t-72.5 173.5zM518 1675h111h-111z" />
    <glyph glyph-name="percent" unicode="%" horiz-adv-x="1069" 
d="M362 881h-206q-37 0 -70 32.5t-33 69.5v256q0 37 33 68.5t70 31.5h206q37 0 69 -31.5t32 -68.5v-256q0 -37 -32 -69.5t-69 -32.5zM129 1006q0 -20 14.5 -35t34.5 -15h160q22 0 36.5 15t14.5 35v208q0 22 -14.5 37t-36.5 15h-160q-20 0 -34.5 -15t-14.5 -37v-208z
M797 1374h125l-650 -1374h-125zM915 494h-208q-35 0 -68 -33t-33 -70v-256q0 -35 33 -67.5t68 -32.5h208q35 0 68 32.5t33 67.5v256q0 37 -33 70t-68 33zM942 369v-209q0 -22 -14.5 -36.5t-36.5 -14.5h-160q-22 0 -36.5 14.5t-14.5 36.5v209q0 20 14.5 34.5t36.5 14.5h160
q22 0 36.5 -14.5t14.5 -34.5z" />
    <glyph glyph-name="ampersand" unicode="&#x26;" horiz-adv-x="1327" 
d="M864 778zM1042 778l2 -598q0 -29 21 -49t49 -20h29v-113h-47q-68 0 -116 48t-48 116v51l61 266h-14l-59 -102q-26 -31 -50 -59t-54 -59.5t-59.5 -58.5t-62.5 -55t-66.5 -50t-70 -41.5t-74 -32.5t-75.5 -20t-79 -6.5t-81 9.5q-84 21 -139.5 89.5t-55.5 156.5v391
q0 69 36.5 128.5t96.5 92.5q-63 69 -63 166v258q0 103 74 176.5t178 73.5h342q103 0 176.5 -73.5t73.5 -176.5v-55h-113v37q0 64 -46.5 109.5t-111.5 45.5h-303q-65 0 -111 -45.5t-46 -109.5v-221q0 -61 43.5 -107t105.5 -49h889v-113h-232zM932 473v305h-608
q-64 0 -111 -47.5t-47 -112.5v-350q0 -64 46.5 -110.5t111.5 -46.5h14q66 0 144.5 30.5t142.5 72t132 97.5t105 92t70 70z" />
    <glyph glyph-name="quotesingle" unicode="'" horiz-adv-x="210" 
d="M158 1380l-21 -358h-63l-21 358h105z" />
    <glyph glyph-name="parenleft" unicode="(" horiz-adv-x="440" 
d="M164 1382v-1228q0 -63 45 -108.5t108 -45.5h70v-111h-88q-101 0 -173.5 72.5t-72.5 173.5v1266q0 101 72.5 173.5t173.5 72.5h88v-111h-70q-63 0 -108 -45.5t-45 -108.5z" />
    <glyph glyph-name="parenright" unicode=")" horiz-adv-x="440" 
d="M387 1401v-1266q0 -101 -72.5 -173.5t-173.5 -72.5h-88v111h70q63 0 108 45.5t45 108.5v1228q0 63 -45 108.5t-108 45.5h-70v111h88q101 0 173.5 -72.5t72.5 -173.5z" />
    <glyph glyph-name="asterisk" unicode="*" horiz-adv-x="835" 
d="M782 1257v-131l-278 17l158 -230l-111 -67l-133 252l-133 -252l-111 67l158 230l-279 -17v131l279 -16l-158 229l111 68l133 -252l133 252l111 -68l-158 -229zM418 1192z" />
    <glyph glyph-name="plus" unicode="+" horiz-adv-x="1079" 
d="M596 688h430v-113h-430v-430h-113v430h-430v113h430v418h113v-418z" />
    <glyph glyph-name="comma" unicode="," horiz-adv-x="210" 
d="M158 162l-21 -359h-63l-21 359h105z" />
    <glyph glyph-name="hyphen" unicode="-" horiz-adv-x="608" 
d="M53 530v111h502v-111h-502z" />
    <glyph glyph-name="period" unicode="." horiz-adv-x="237" 
d="M57 45q-9 25 2 50.5t37 31.5q16 4 23 4q45 0 61 -43q9 -27 -2 -52t-37 -32q-16 -4 -22 -4q-20 0 -37.5 12.5t-24.5 32.5z" />
    <glyph glyph-name="slash" unicode="/" horiz-adv-x="954" 
d="M901 1536l-725 -1536h-123l725 1536h123z" />
    <glyph glyph-name="zero" unicode="0" horiz-adv-x="1167" 
d="M250 430zM1114 1290v-1044q0 -101 -72.5 -173.5t-173.5 -72.5h-569q-100 0 -173 72.5t-73 173.5v1044q0 99 70.5 172t169.5 76h575q97 -2 171.5 -76t74.5 -172zM1004 264v1008q0 61 -43 105.5t-105 47.5l-539 2q-62 0 -107.5 -46t-45.5 -109v-1008q0 -59 34.5 -106
t92.5 -47h559q64 0 109 48.5t45 104.5z" />
    <glyph glyph-name="one" unicode="1" horiz-adv-x="827" 
d="M569 1536h205v-1536h-110v1497l-484 -649h-127z" />
    <glyph glyph-name="two" unicode="2" horiz-adv-x="1167" 
d="M88 111h762q63 0 108.5 45t45.5 108v37h110v-55q0 -101 -72.5 -173.5t-173.5 -72.5h-815v715q0 101 72.5 173.5t175.5 72.5h547q64 0 110 45t46 108v158q0 58 -47.5 105.5t-106.5 47.5h-531q-64 0 -108.5 -45t-44.5 -108v-37h-113v55q0 101 72.5 173.5t175.5 72.5h567
q100 0 173 -72.5t73 -173.5v-194q0 -101 -72.5 -173.5t-173.5 -72.5h-549q-64 0 -108.5 -45.5t-44.5 -108.5v-37l-2 -512l-76 -24v-12z" />
    <glyph glyph-name="three" unicode="3" horiz-adv-x="1175" 
d="M1112 713v-469q0 -101 -72.5 -173.5t-173.5 -72.5h-567q-101 0 -173.5 72.5t-72.5 173.5v55h111v-37q0 -63 45 -108t108 -45h531q63 0 108 45t45 108v432q0 60 -40 104t-99 50h-518v110h506q63 2 107 46.5t44 107.5v121v35q0 63 -43.5 107t-105.5 46h-535
q-63 0 -108 -44.5t-45 -108.5v-35h-111v53q0 101 72.5 173.5t173.5 72.5h573q100 -1 170 -73.5t70 -172.5v-192q0 -117 -90 -191q90 -74 90 -190z" />
    <glyph glyph-name="four" unicode="4" horiz-adv-x="1273" 
d="M1006 588h215v-113h-215v-475h-111v475h-842v113l766 948h187v-948zM971 588v14l-76 16v838l-700 -868h776z" />
    <glyph glyph-name="five" unicode="5" horiz-adv-x="1167" 
d="M53 1098v438h815q101 0 173.5 -72.5t72.5 -175.5v-53h-110v37q0 63 -45.5 107t-110.5 44h-758v-12l74 -22v-273q0 -63 45 -108t108 -45h551q101 0 173.5 -72.5t72.5 -173.5v-471q0 -77 -45.5 -140t-116.5 -90q-43 -16 -86 -16h-565q-101 0 -173.5 72.5t-72.5 173.5v55
h111v-37q0 -63 45 -108t108 -45h529q63 0 109.5 45t46.5 108l-3 434q0 63 -44.5 108.5t-108.5 45.5h-549q-101 0 -173.5 72.5t-72.5 173.5z" />
    <glyph glyph-name="six" unicode="6" horiz-adv-x="1163" 
d="M1110 598v-352q0 -101 -72.5 -173.5t-173.5 -72.5h-565q-101 0 -173.5 72.5t-72.5 173.5v1044q0 101 72.5 173.5t173.5 72.5h565q101 0 173.5 -72.5t72.5 -173.5v-53h-111v35q0 64 -45 108.5t-108 44.5h-529q-63 0 -108 -45t-45 -108v-393l-76 -23v-12h776
q101 0 173.5 -72.5t72.5 -173.5zM846 111q61 0 105.5 42.5t47.5 104.5v2v320q0 63 -45 108t-108 45h-682v-469q0 -63 45 -108t108 -45h529z" />
    <glyph glyph-name="seven" unicode="7" horiz-adv-x="1163" 
d="M53 1536h1057v-111l-719 -1425h-125l695 1378l114 35v12h-1022v111z" />
    <glyph glyph-name="eight" unicode="8" horiz-adv-x="1167" 
d="M53 1098v192q0 101 72.5 173.5t173.5 72.5h567q101 0 174.5 -72.5t73.5 -173.5l-2 -192q0 -119 -90 -193q92 -75 92 -190v-469q0 -101 -73.5 -173.5t-174.5 -72.5h-567q-101 0 -173.5 72.5t-72.5 173.5v469q0 117 92 190q-42 35 -67 85.5t-25 107.5zM164 1272v-156
q0 -64 45 -109.5t110 -45.5h529q63 0 109.5 45.5t46.5 109.5l-3 156q0 63 -44.5 108t-108.5 45h-531q-63 0 -108 -45t-45 -108zM862 850h-14h-539h-4q-60 -4 -100.5 -49t-40.5 -105v-432q0 -63 45 -108t108 -45h531q63 0 108 45t45 108v432q0 60 -40.5 105t-98.5 49z
M100 274z" />
    <glyph glyph-name="nine" unicode="9" horiz-adv-x="1167" 
d="M1114 1288v-1288h-815q-101 0 -173.5 72.5t-72.5 173.5v55h111v-37q0 -63 45.5 -108t109.5 -45h682l3 577h-705q-101 0 -173.5 72.5t-72.5 173.5v358q0 99 73.5 170.5t172.5 71.5h569q101 0 173.5 -72.5t72.5 -173.5zM317 799h762v12l-75 23l-3 436q0 63 -44.5 108
t-108.5 45h-531q-63 0 -108 -45t-45 -108v-318q0 -63 45 -108t108 -45z" />
    <glyph glyph-name="colon" unicode=":" horiz-adv-x="237" 
d="M57 801q-9 27 2 52.5t37 31.5q16 4 23 4q45 0 61 -43q9 -27 -2 -52.5t-37 -31.5q-16 -4 -22 -4q-46 0 -62 43zM57 45q-9 25 2 50.5t37 31.5q16 4 23 4q45 0 61 -43q9 -25 -2 -51t-37 -33q-16 -4 -22 -4q-20 0 -37.5 12.5t-24.5 32.5z" />
    <glyph glyph-name="semicolon" unicode=";" horiz-adv-x="237" 
d="M88 -197l-20 359h104l-20 -359h-64zM57 801q-9 27 2 52.5t37 31.5q16 4 23 4q45 0 61 -43q9 -27 -2 -52.5t-37 -31.5q-16 -4 -22 -4q-46 0 -62 43z" />
    <glyph glyph-name="less" unicode="&#x3c;" horiz-adv-x="1067" 
d="M1014 207v-123l-961 408v206l961 408v-123l-922 -389z" />
    <glyph glyph-name="equal" unicode="=" horiz-adv-x="1081" 
d="M53 465v113h975v-113h-975zM53 915h975v-112h-975v112z" />
    <glyph glyph-name="greater" unicode="&#x3e;" horiz-adv-x="1067" 
d="M53 983v123l961 -408v-206l-961 -408v123l922 389z" />
    <glyph glyph-name="question" unicode="?" horiz-adv-x="1085" 
d="M1032 1309v-179q0 -94 -66.5 -160.5t-160.5 -66.5h-119q-59 0 -101 -41.5t-42 -99.5v-594h-103v610q0 94 67 161t161 67h118q59 0 101.5 41.5t42.5 99.5v145q0 58 -42.5 100t-101.5 42h-489q-58 0 -99.5 -41.5t-41.5 -100.5v-57h-103v74q0 94 67 160.5t161 66.5h524
q59 0 113 -31q52 -30 83 -82t31 -114zM549 80q8 -23 -3 -46t-34 -30q-23 -9 -46 1.5t-32 33.5q-7 25 3.5 47t33.5 31q23 8 46 -3t32 -34zM1032 1257z" />
    <glyph glyph-name="at" unicode="@" horiz-adv-x="1388" 
d="M694 1071q174 0 321.5 -86t233.5 -233.5t86 -321.5q0 -31 -1 -54t-4.5 -54.5t-10 -54.5t-19.5 -48t-30.5 -40.5t-44 -25.5t-60.5 -10h-137q-59 0 -104 39t-56 97l47 200h-14q-13 -24 -40 -74.5t-43.5 -81.5t-34.5 -62t-27 -40q-14 -16 -27.5 -28t-23 -20t-25 -13.5
t-22 -8.5t-26.5 -4.5t-26 -2t-31.5 0t-33.5 0.5q-69 0 -123 32t-82 82.5t-40.5 112t0.5 123t41 112t82 82.5t122 32h325v22h113v-419q0 -28 20 -48t48 -20h100q26 0 42.5 16t22.5 47t7.5 51t1.5 52v8q0 143 -70.5 264t-192 191.5t-264.5 70.5t-264 -70.5t-191.5 -191.5
t-70.5 -264t70.5 -264t191.5 -191.5t264 -70.5q166 0 303 96v-135q-140 -76 -303 -76q-174 0 -321.5 86t-233.5 233.5t-86 321.5t86 321.5t233.5 233.5t321.5 86zM866 545v63h-321q-47 -4 -80.5 -32t-48 -67t-12.5 -83.5t19 -82t52.5 -62.5t83.5 -25q121 0 214 86t93 203z
" />
    <glyph glyph-name="A" unicode="A" horiz-adv-x="1402" 
d="M1305 109h45v-109h-62q-61 0 -104 43t-66 115l-135 460h-557l-135 -460q-51 -158 -170 -158h-68v109h56q22 0 36.5 17.5t30.5 49.5l408 1360h243l408 -1360q28 -67 70 -67zM461 727h551v12l-76 21l-231 764z" />
    <glyph glyph-name="B" unicode="B" horiz-adv-x="1282" 
d="M854 961h-8h8zM872 850h-8h8zM1061 948q73 -27 119.5 -91t46.5 -142v-467q0 -74 -30.5 -126.5t-80.5 -78t-103.5 -35t-111.5 -6.5q-77 1 -175 48.5t-189.5 119.5t-150 124.5t-103.5 98.5l-47 80h-15l62 -260v-51q0 -66 -48 -113t-114 -47h-68v111h49q28 0 48 19.5
t20 47.5v1358h694q101 0 173.5 -73.5t72.5 -174.5v-194q0 -83 -49 -148zM283 1425v-464h571q61 3 103 47t42 106v158q0 64 -45 108.5t-108 44.5h-563zM1116 266v430q0 63 -45 108.5t-108 45.5h-91h-589v-377q47 -42 110.5 -90.5t162.5 -115.5t204 -110.5t186 -43.5h17
q63 0 108 44.5t45 108.5z" />
    <glyph glyph-name="C" unicode="C" horiz-adv-x="1165" 
d="M1001 303h111v-61q0 -105 -71 -173.5t-173 -68.5h-573q-97 0 -169.5 66.5t-72.5 160.5v1073q0 99 71 167.5t171 68.5h573q103 0 173.5 -68.5t70.5 -169.5v-65h-111v65q0 55 -38.5 91t-88.5 36h-579q-57 0 -95 -34.5t-38 -90.5v-1042q1 -61 46 -104t107 -43h555
q50 0 90.5 36t40.5 95v61z" />
    <glyph glyph-name="D" unicode="D" horiz-adv-x="1286" 
d="M1229 1032v-528q0 -104 -22 -185t-58.5 -134t-92.5 -91t-116 -58.5t-137 -33.5q-81 -7 -153 8.5t-137 54t-117 82.5t-115 109l-45 80h-15l51 -223q-15 -50 -56.5 -81.5t-94.5 -31.5h-68v111h47q29 0 49.5 20t20.5 49v1356h608q137 0 240.5 -67.5t157 -181.5t53.5 -255z
M1110 502v530q0 105 -39 193t-116 143t-177 55h-497v-1067q224 -201 391 -243q33 -5 62 -4.5t49 3.5l20 3q153 35 230 121.5t77 265.5z" />
    <glyph glyph-name="E" unicode="E" horiz-adv-x="1165" 
d="M88 111h1024v-111h-1059v1536h1059v-111h-948v-430l-76 -22v-12h1024v-111h-948v-707l-76 -20v-12z" />
    <glyph glyph-name="F" unicode="F" horiz-adv-x="1165" 
d="M90 961h1022v-113h-948v-848h-111v1536h1059v-111h-948v-434l-74 -20v-10z" />
    <glyph glyph-name="G" unicode="G" horiz-adv-x="1292" 
d="M1239 967h-115v14q0 123 -52 224.5t-147.5 161.5t-215.5 60h-131q-182 0 -298 -127.5t-116 -314.5v-450q0 -146 87.5 -257t227.5 -155q8 -2 21 -4t51 -4.5t63 4.5q79 18 166.5 68.5t160.5 113.5t114.5 104t68.5 72v217h-163q-65 0 -110.5 -45.5t-45.5 -109.5v-37h-111v55
q0 103 72.5 175.5t175.5 72.5h295v-805h-113v225l60 252h-15l-45 -80q-48 -61 -102 -119t-121.5 -118t-141.5 -101.5t-141 -52.5q-145 -23 -276.5 40t-210 187t-78.5 273v520q0 212 150 362t362 150h162q138 0 256 -68.5t187 -186.5t69 -257v-59z" />
    <glyph glyph-name="H" unicode="H" horiz-adv-x="1226" 
d="M1061 1536h113v-1536h-113v813l76 21v12h-971v-846h-113v1536h113v-541l-76 -22v-12h971v575z" />
    <glyph glyph-name="I" unicode="I" horiz-adv-x="219" 
d="M53 1536h113v-1536h-113v1536z" />
    <glyph glyph-name="J" unicode="J" horiz-adv-x="1169" 
d="M831 1536h285v-1026q0 -231 -157 -373q-131 -119 -320 -134q-193 -16 -347 84q-179 116 -225 343q-14 70 -14 148h117q0 -235 147 -361q116 -98 278 -94q157 3 270 101q136 117 136 313v849l80 25v14h-231q-63 0 -108.5 -45t-45.5 -108v-37h-110v55q0 101 72 173.5
t173 72.5z" />
    <glyph glyph-name="K" unicode="K" horiz-adv-x="1282" 
d="M1182 111h47v-111h-66q-66 0 -114 48t-48 114v373q0 63 -44.5 108t-108.5 45h-684v-688h-111v1536h111v-702l-76 -23v-12h332l553 737h139l-553 -737h307q101 0 174.5 -72.5t73.5 -173.5v-373q0 -28 20 -48.5t48 -20.5z" />
    <glyph glyph-name="L" unicode="L" horiz-adv-x="1273" 
d="M88 111h1133v-111h-1168v1536h111v-1386l-76 -25v-14z" />
    <glyph glyph-name="M" unicode="M" horiz-adv-x="1599" 
d="M1327 1536h219v-1536h-110v1495l-523 -694h-225l-524 694v-1495h-111v1536h219l529 -700z" />
    <glyph glyph-name="N" unicode="N" horiz-adv-x="1284" 
d="M1120 1536h111v-1536h-230l-837 1513v-1513h-111v1536h223l844 -1520v1520z" />
    <glyph glyph-name="O" unicode="O" horiz-adv-x="1286" 
d="M737 1536q215 -3 355.5 -143.5t140.5 -350.5v-522q0 -105 -38.5 -200.5t-104 -166t-158 -112t-195.5 -41.5h-162q-139 0 -259 68t-191.5 188.5t-71.5 265.5v520q0 137 69 250.5t189 178.5t264 65h162zM1118 569v426q0 210 -118 320t-312 110h-67q-94 0 -176 -27t-145 -79
t-99.5 -135.5t-36.5 -188.5v-426q0 -106 36.5 -193t99 -144t145.5 -88t176 -31h67q190 0 310 122t120 334z" />
    <glyph glyph-name="P" unicode="P" horiz-adv-x="1138" 
d="M840 1536q100 0 171.5 -72t73.5 -172v-317q0 -101 -72 -173.5t-173 -72.5h-676v-729h-111v1536h787zM973 993v287q-3 60 -48 102.5t-106 42.5h-655v-551l-76 -24v-12l731 2q65 0 109.5 44.5t44.5 108.5z" />
    <glyph glyph-name="Q" unicode="Q" horiz-adv-x="1286" 
d="M1233 1026v-518q0 -103 -39 -195.5t-109 -162.5l56 -56l92 -92h-156l-14 12l-66 66q-122 -80 -272 -80h-164q-137 0 -254 68.5t-185.5 185.5t-68.5 254v526q0 137 68.5 252.5t185.5 182.5t254 67h164q138 0 255 -68.5t185 -186t68 -255.5zM1124 541v456
q0 183 -124.5 305.5t-307.5 122.5h-102q-183 0 -304.5 -122.5t-121.5 -305.5v-456q0 -185 121.5 -307.5t304.5 -122.5h86q145 0 237 53l-155 155h157l86 -86q123 123 123 308z" />
    <glyph glyph-name="R" unicode="R" horiz-adv-x="1327" 
d="M1225 111h49v-111h-68q-66 0 -112.5 47t-46.5 113v415q0 65 -44.5 109.5t-109.5 44.5h-729v-729h-111v1536h813q101 0 173.5 -72t72.5 -172v-315q0 -102 -70 -172q53 -34 84 -90t31 -121v-416q0 -28 20 -47.5t48 -19.5zM1001 995v287q-3 60 -47.5 101.5t-105.5 41.5h-684
v-548l-76 -23v-12h760q63 0 108 45t45 108z" />
    <glyph glyph-name="S" unicode="S" horiz-adv-x="1167" 
d="M1114 1235h-110v37q0 63 -45.5 108t-108.5 45h-533q-61 0 -105.5 -41.5t-47.5 -101.5v-285q0 -63 45 -108t108 -45h551q101 0 173.5 -72.5t72.5 -173.5v-352q0 -107 -66 -176.5t-180 -69.5h-569q-101 0 -173.5 72.5t-72.5 173.5v53h111v-35q0 -63 45 -108t108 -45h533
q71 0 111 40t43 107v322q0 63 -45.5 108t-108.5 45h-551q-101 0 -173.5 72.5t-72.5 173.5v313q0 101 72.5 172.5t173.5 71.5h569q101 0 173.5 -72.5t72.5 -173.5v-55z" />
    <glyph glyph-name="T" unicode="T" horiz-adv-x="1284" 
d="M53 1536h1178v-111h-533v-1425h-112v1389l76 22v14h-609v111z" />
    <glyph glyph-name="U" unicode="U" horiz-adv-x="1284" 
d="M1182 111h49v-111h-68q-53 0 -94.5 31.5t-56.5 81.5l51 221h-14l-45 -78q-83 -89 -184 -160.5t-195 -89.5q-145 -24 -277.5 38t-212.5 185.5t-80 272.5l-2 1034h111l2 -1014q0 -144 87 -248t228 -147q209 -53 523 227v1182h110v-1358q0 -28 20 -47.5t48 -19.5z" />
    <glyph glyph-name="V" unicode="V" horiz-adv-x="1318" 
d="M1141 1536h125l-496 -1536h-221l-496 1536h125l481 -1489z" />
    <glyph glyph-name="W" unicode="W" horiz-adv-x="2291" 
d="M2114 1536h124l-497 -1536h-221l-377 1161l-373 -1161h-221l-496 1536h123l481 -1489l484 1489h6l481 -1489z" />
    <glyph glyph-name="X" unicode="X" horiz-adv-x="1284" 
d="M1231 1536l-518 -768l518 -768h-139l-451 666l-448 -666h-140l518 768l-518 768h140l448 -666l451 666h139z" />
    <glyph glyph-name="Y" unicode="Y" horiz-adv-x="1284" 
d="M1106 1536h125l-533 -834v-702h-112v702l-533 834h125l463 -723z" />
    <glyph glyph-name="Z" unicode="Z" horiz-adv-x="1286" 
d="M1229 1536l2 -113l-993 -1278l-86 -18v-14h1081v-113h-1178v113l1000 1278l80 18v14h-1082v113h1176z" />
    <glyph glyph-name="bracketleft" unicode="[" horiz-adv-x="446" 
d="M393 1536h-227v-1536h227v-113h-340v1762h340v-113z" />
    <glyph glyph-name="backslash" unicode="\" horiz-adv-x="962" 
d="M786 0l-733 1536h123l733 -1536h-123z" />
    <glyph glyph-name="bracketright" unicode="]" horiz-adv-x="446" 
d="M53 1649h340v-1762h-340v113h228v1536h-228v113z" />
    <glyph glyph-name="asciicircum" unicode="^" horiz-adv-x="1128" 
d="M53 367l371 964h221l434 -964h-125l-419 925l-357 -925h-125z" />
    <glyph glyph-name="underscore" unicode="_" horiz-adv-x="1130" 
d="M53 -145h1024v-111h-1024v111z" />
    <glyph glyph-name="grave" unicode="`" 
d="M45 1419h197l180 -293h-127z" />
    <glyph glyph-name="a" unicode="a" horiz-adv-x="1075" 
d="M815 401l-47 -84q-28 -51 -60 -94.5t-71 -84.5t-81.5 -69.5t-92.5 -48.5t-103 -22t-114 10q-193 43 -193 295q-1 123 70 196.5t176 73.5h496v123q0 63 -45.5 108.5t-108.5 45.5h-324q-63 0 -108 -45.5t-45 -108.5v-37h-111v56q0 101 72.5 173.5t173.5 72.5h360
q101 0 173.5 -72.5t72.5 -173.5v-535q0 -28 20 -47.5t48 -19.5h49v-111h-68q-66 0 -112.5 47t-46.5 113v86l34 153h-14zM801 412v65h-504q-59 -6 -99.5 -48.5t-43.5 -100.5v-35.5t1.5 -33.5t4 -34t7.5 -29t12.5 -27.5t19.5 -21t27.5 -18t37 -10t47.5 -4.5h17q53 0 106.5 15
t95.5 36.5t84.5 54t70 58.5t56.5 58.5t38.5 45.5t21.5 29z" />
    <glyph glyph-name="b" unicode="b" horiz-adv-x="1075" 
d="M760 961q101 0 181.5 -80t80.5 -181v-456q0 -102 -74.5 -173t-175.5 -71q-173 0 -287.5 78.5t-203.5 238.5l-45 82h-15l60 -249q-5 -63 -51 -106.5t-109 -43.5h-68v111h47q29 0 49.5 20t20.5 49v1356h111v-621q66 46 135 46h344zM911 262v420q0 63 -53.5 115.5
t-118.5 52.5h-305q-60 0 -104 -44.5t-49 -105.5v-303q18 -25 35 -46t66 -71t97.5 -84t120 -62t141.5 -28h15q64 0 108.5 45.5t46.5 110.5z" />
    <glyph glyph-name="c" unicode="c" horiz-adv-x="1017" 
d="M965 657h-111v41q0 63 -46.5 107.5t-109.5 44.5h-381q-63 0 -108 -45.5t-45 -108.5v-438q3 -62 47.5 -104.5t105.5 -42.5h381q63 0 109.5 45t46.5 108v39h111v-57q0 -101 -73.5 -173.5t-174.5 -72.5h-420q-98 0 -168.5 67t-75.5 164v484q0 101 72.5 173.5t173.5 72.5h418
q103 0 175.5 -68.5t72.5 -175.5v-60z" />
    <glyph glyph-name="d" unicode="d" horiz-adv-x="1075" 
d="M973 111h49v-111h-68q-63 0 -108.5 42.5t-50.5 104.5l59 252h-14l-45 -77q-40 -73 -98 -136t-128.5 -111t-155 -67.5t-167.5 -1.5q-84 19 -138.5 86t-54.5 154v450q0 101 81.5 183t182.5 82h342q72 0 136 -41v616h110v-1358q0 -28 20 -47.5t48 -19.5zM795 399v306
q-4 60 -49 101.5t-105 41.5h-305q-64 0 -118 -53t-54 -117v-414q0 -63 45 -108t108 -45h17q70 0 141.5 27.5t120.5 62t97.5 82.5t66.5 70.5t35 45.5z" />
    <glyph glyph-name="e" unicode="e" horiz-adv-x="960" 
d="M662 961q101 0 173 -72.5t72 -173.5v-82q0 -246 -309 -246q-66 1 -132 31t-113 69.5t-90 89t-64 80t-33 52.5l-43 77h-17l60 -249v-273q0 -63 45 -108t108 -45h322q64 0 110 45t46 108v37h110v-55q0 -101 -72 -173.5t-173 -72.5h-361q-101 0 -174.5 72.5t-73.5 173.5v452
q0 68 26.5 121.5t67 83t81.5 44t77 14.5h357zM641 498q47 0 79.5 17t48 48t22 65t6.5 77q-3 56 -43.5 97.5t-96.5 47.5h-434q-24 -5 -40 -22.5t-17 -41.5q14 -20 34.5 -45.5t67.5 -72t96.5 -81.5t121 -62t141.5 -27h14z" />
    <glyph glyph-name="f" unicode="f" horiz-adv-x="927" 
d="M874 1235h-112v37q0 63 -45 108t-109 45h-119q-63 0 -108 -45t-45 -108v-277l-76 -22v-12h614v-111h-538v-850h-111v850h-172v111h172v329q0 101 72.5 173.5t173.5 72.5h158q101 0 173 -72.5t72 -173.5v-55z" />
    <glyph glyph-name="g" unicode="g" horiz-adv-x="1073" 
d="M952 958h68v-110h-47q-29 0 -49.5 -20t-20.5 -48v-1110q0 -101 -72.5 -173t-173.5 -72h-358q-101 0 -173.5 72t-72.5 173v60h111v-41q0 -63 45 -108.5t108 -45.5h322q63 0 108.5 45.5t45.5 108.5v352q-64 -41 -136 -41h-358q-101 0 -173.5 72.5t-72.5 173.5v467
q0 143 109 209q103 62 251 27q167 -40 293 -186q50 -57 87 -126l45 -78h14l-59 252q6 62 51.5 104.5t107.5 42.5zM793 256v303q-13 19 -33.5 45t-67 72t-97 81.5t-121 63t-140.5 27.5h-17q-63 0 -108 -45.5t-45 -108.5v-430q0 -63 45 -108t108 -45h322q62 0 106.5 42
t47.5 103zM612 997z" />
    <glyph glyph-name="h" unicode="h" horiz-adv-x="1067" 
d="M967 111h47v-111h-66q-66 0 -115 48t-49 114l2 532q0 71 -48.5 112.5t-119.5 41.5q-67 0 -134.5 -25t-114.5 -56.5t-95 -77t-68.5 -70.5t-41.5 -52v-567h-111v1536h111v-711l-60 -256h15l45 80q101 178 272 259q149 70 280 39q121 -30 163 -134q18 -45 18 -100l-2 -533
q0 -29 21 -49t51 -20z" />
    <glyph glyph-name="i" unicode="i" horiz-adv-x="323" 
d="M51 1067q-9 25 2.5 49t36.5 33q27 9 51 -2t33 -37q9 -25 -2.5 -50t-36.5 -34q-26 -9 -50.5 3t-33.5 38zM57 141l-2 820h111l2 -803q0 -25 17 -42.5t42 -17.5h43v-98h-71q-59 0 -100.5 41.5t-41.5 99.5z" />
    <glyph glyph-name="j" unicode="j" horiz-adv-x="264" 
d="M92 961h111v-1319q0 -90 -63.5 -153.5t-153.5 -63.5h-138q-89 0 -153 64t-64 153v51h111v-35q0 -56 34 -89.5t89 -33.5h104q57 0 90 33.5t33 89.5v1303zM96 1120q0 -25 16.5 -41t41.5 -16q24 0 40.5 16.5t16.5 40.5q0 23 -17 40.5t-40 17.5q-24 0 -41 -17t-17 -41z" />
    <glyph glyph-name="k" unicode="k" horiz-adv-x="952" 
d="M850 111h49v-111h-68q-66 0 -112.5 48t-46.5 114v207q0 63 -46 108t-110 45h-352v-522h-111v1536h111v-629l-58 -254h7h6l45 78q171 228 360 230q102 0 180 -74t78 -174v-58h-110v39q0 61 -43 106t-103 48q-191 -7 -362 -207v-8h373q101 0 173 -72.5t72 -175.5v-205
q0 -28 20 -48.5t48 -20.5zM346 1243z" />
    <glyph glyph-name="l" unicode="l" horiz-adv-x="333" 
d="M233 111h48v-111h-97q-61 0 -96 41.5t-35 95.5v1399h111v-1356q0 -29 20 -49t49 -20z" />
    <glyph glyph-name="m" unicode="m" horiz-adv-x="1800" 
d="M1698 111h49v-111h-68q-66 0 -112.5 48t-46.5 114v532q0 63 -45.5 107.5t-108.5 44.5h-16q-66 0 -133 -24.5t-115 -57t-95 -76.5t-69 -70t-41 -51v-389q0 -28 20 -47.5t48 -19.5h49v-111h-68q-66 0 -113 48t-47 114v532q0 63 -45 107.5t-108 44.5h-17q-66 0 -132.5 -24
t-115 -57t-94.5 -76t-69.5 -70.5t-40.5 -51.5v-567h-111v961h111v-142v2l-60 -252h15l45 78q16 29 36.5 60t61 79.5t83.5 84.5t104 62.5t122 27.5q57 2 102 -4.5t89.5 -25t76 -56.5t48.5 -95l-49 -211h14l45 78q16 29 37 59.5t62.5 79t85 84.5t105 63t122.5 28
q73 0 128 -11.5t100 -38.5t69 -77.5t24 -122.5v-533q0 -28 20 -47.5t48 -19.5z" />
    <glyph glyph-name="n" unicode="n" horiz-adv-x="1069" 
d="M967 111h49v-111h-68q-66 0 -113 48t-47 114v532q0 64 -45 109t-108 45h-17q-67 0 -134 -24.5t-115 -56t-95 -76.5t-68.5 -70t-41.5 -52v-569h-111v961h111v-136l-60 -256h15l45 80q48 83 76 118q154 193 413 191q101 0 173.5 -71.5t72.5 -173.5v-533q0 -29 20 -49
t48 -20z" />
    <glyph glyph-name="o" unicode="o" horiz-adv-x="1017" 
d="M719 961q101 0 173.5 -72.5t72.5 -173.5v-469q0 -101 -72.5 -173.5t-173.5 -72.5h-420q-98 0 -169.5 68t-76.5 165v482q0 101 72.5 173.5t173.5 72.5h420zM854 264v432q0 63 -46 108.5t-110 45.5h-381q-63 0 -108 -45.5t-45 -108.5v-438q3 -62 47.5 -104.5t105.5 -42.5
h381q64 0 110 45t46 108z" />
    <glyph glyph-name="p" unicode="p" horiz-adv-x="1132" 
d="M887 952q83 -19 137.5 -85.5t54.5 -153.5v-467q0 -101 -72.5 -173.5t-175.5 -72.5h-415q-76 0 -135 41v-616h-111v1355q0 28 -20.5 48t-49.5 20h-47v110h68q63 0 109.5 -42t50.5 -105l-60 -252h15l45 78q95 174 250.5 258.5t355.5 56.5zM967 264v430q0 64 -44.5 109
t-109.5 45h-14q-70 0 -146.5 -26.5t-136.5 -64t-113 -80.5t-82.5 -73t-39.5 -45v-106v-197q5 -61 48.5 -103t104.5 -42h379q64 0 109 45t45 108z" />
    <glyph glyph-name="q" unicode="q" horiz-adv-x="1075" 
d="M905 780v-1177q0 -28 20 -48t48 -20h49v-110h-68q-66 0 -112.5 46.5t-46.5 112.5v457q-59 -41 -136 -41h-360q-101 0 -173.5 72.5t-72.5 173.5v467q0 87 54.5 154t138.5 87q167 37 313 -57t236 -258l45 -80h14l-59 252q5 63 50.5 106.5t108.5 43.5h68v-111h-49
q-28 0 -48 -21t-20 -49zM795 256v305q-17 23 -35 45.5t-66.5 70.5t-97.5 82t-120.5 61.5t-141.5 27.5h-17q-63 0 -108 -45t-45 -109v-430q0 -63 45 -108t108 -45h324q60 0 104.5 42.5t49.5 102.5z" />
    <glyph glyph-name="r" unicode="r" horiz-adv-x="1075" 
d="M829 954q84 -19 138.5 -85.5t54.5 -153.5v-58h-111v39q0 63 -45 108.5t-108 45.5h-17q-59 0 -118 -18t-107.5 -49.5t-87 -62t-72.5 -69t-47.5 -55t-27.5 -35.5v-561h-111v782q0 28 -20.5 48t-49.5 20h-47v111h68q63 0 109 -43t51 -105l-60 -252h15l45 78q35 63 77 116
t95 98.5t111 72t125.5 36.5t139.5 -8z" />
    <glyph glyph-name="s" unicode="s" horiz-adv-x="1011" 
d="M369 -399zM369 -399zM713 0h-414q-101 0 -173.5 72.5t-72.5 173.5v53h111v-35q0 -63 45 -108t108 -45h377q68 0 110 46.5t42 112.5q0 63 -44.5 109.5t-107.5 46.5h-395q-102 0 -174 77.5t-72 190.5q0 119 63 193t183 74h414q101 0 173 -72.5t72 -173.5v-53h-112v34
q0 63 -44.5 108.5t-107.5 45.5h-377q-64 0 -108.5 -43.5t-44.5 -112.5t44.5 -114t108.5 -45h396q102 0 173.5 -76t71.5 -189q0 -120 -62.5 -195t-182.5 -75z" />
    <glyph glyph-name="t" unicode="t" horiz-adv-x="1130" 
d="M965 305h112v-59q0 -101 -72.5 -173.5t-173.5 -72.5h-360q-101 0 -173.5 72.5t-72.5 173.5v604h-172v111h250v12l-78 22v541h111l2 -575h567v-111h-569v-582q0 -66 44.5 -111.5t108.5 -45.5h322q65 0 109.5 44.5t44.5 108.5v41z" />
    <glyph glyph-name="u" unicode="u" horiz-adv-x="1079" 
d="M336 0q-117 0 -200 67t-83 183v711h111v-693q0 -63 45.5 -108t109.5 -45q72 0 146.5 28.5t128 67t101.5 84t71 73t31 40.5v553h112v-779q0 -28 20 -48.5t48 -20.5h49v-111h-68q-64 0 -110 44.5t-51 109.5l59 252h-14l-45 -78q-75 -142 -197 -236t-264 -94z" />
    <glyph glyph-name="v" unicode="v" horiz-adv-x="1128" 
d="M952 961h123l-407 -961h-207l-408 961h123l389 -922z" />
    <glyph glyph-name="w" unicode="w" horiz-adv-x="2088" 
d="M53 961h123l389 -922l387 922h185l391 -922l385 922h123l-406 -961h-207l-379 889l-376 -889h-207z" />
    <glyph glyph-name="x" unicode="x" horiz-adv-x="1067" 
d="M868 961h146l-408 -482l408 -479h-146l-333 393l-336 -393h-146l408 479l-408 482h146l336 -396z" />
    <glyph glyph-name="y" unicode="y" horiz-adv-x="1075" 
d="M909 268zM909 961h113v-1291q0 -101 -72.5 -173t-175.5 -72h-358q-101 0 -173.5 72t-72.5 173v58h111v-39q0 -63 45 -108.5t108 -45.5h322q64 0 108.5 45.5t44.5 108.5v456l60 254h-15l-45 -80q-43 -78 -98.5 -141.5t-126.5 -111t-150.5 -63t-171.5 2.5q-84 19 -138 86
t-54 154v534q0 29 -20.5 49.5t-49.5 20.5h-47v111h68q66 0 113 -48t47 -114v-545q5 -60 49 -101.5t104 -41.5q70 0 142 26.5t124.5 62.5t101 80t72 71.5t35.5 45.5v564z" />
    <glyph glyph-name="z" unicode="z" horiz-adv-x="1015" 
d="M961 961v-89l-707 -733l-78 -18v-15h787v-106h-910v88l709 735l76 17v14h-785v107h908z" />
    <glyph glyph-name="braceleft" unicode="{" horiz-adv-x="638" 
d="M270 770q92 -75 92 -192v-422q0 -64 45.5 -110t108.5 -46h70v-111h-88q-101 0 -173.5 72.5t-72.5 175.5v422q0 64 -45.5 110t-108.5 46h-45v110h13h30q65 0 110.5 45t45.5 109v422q0 101 72.5 173.5t173.5 72.5h88v-111h-70q-63 0 -108.5 -45t-45.5 -109v-421
q0 -116 -92 -191z" />
    <glyph glyph-name="bar" unicode="|" horiz-adv-x="217" 
d="M164 -215h-111v1966h111v-1966z" />
    <glyph glyph-name="braceright" unicode="}" horiz-adv-x="638" 
d="M541 823h45v-110h-15h-30q-63 0 -108.5 -45.5t-45.5 -108.5v-422q0 -103 -72.5 -175.5t-173.5 -72.5h-88v111h70q63 0 108 45.5t45 108.5v424q0 56 24.5 106t66.5 84q-42 34 -66.5 84t-24.5 106v424q0 63 -45 108.5t-108 45.5h-70v111h88q101 0 173.5 -72.5t72.5 -173.5
l2 -422q0 -63 44.5 -109.5t107.5 -46.5z" />
    <glyph glyph-name="asciitilde" unicode="~" horiz-adv-x="1126" 
d="M53 430q-4 148 64.5 228.5t179.5 80.5q63 0 123 -19.5t168 -72.5q66 -32 97.5 -46t76 -27t80.5 -13q107 0 110 172h121q7 -159 -60 -234t-173 -75q-60 0 -124.5 20t-172.5 70q-17 8 -54 26t-54.5 26t-45 18.5t-49.5 15t-43 4.5q-118 0 -121 -174h-123z" />
    <glyph glyph-name="uni00A0" unicode="&#xa0;" horiz-adv-x="434" 
 />
    <glyph glyph-name="exclamdown" unicode="&#xa1;" horiz-adv-x="471" 
d="M137 -399l29 977h139l29 -977h-197zM115 870q0 57 34.5 93t88.5 36t86 -36t32 -93q0 -54 -33 -89.5t-87 -35.5q-53 0 -87 36t-34 89z" />
    <glyph glyph-name="cent" unicode="&#xa2;" horiz-adv-x="962" 
d="M909 831h-112v39q0 64 -45.5 110t-108.5 46h-324q-64 0 -109.5 -45.5t-45.5 -110.5q2 -438 2 -440q1 -61 46 -104t107 -43h324q63 0 108.5 45.5t45.5 109.5v39h112v-57q0 -103 -72 -175.5t-175 -72.5h-125v-172h-111v172h-125q-98 0 -169 66.5t-79 162.5v19v469
q0 103 72.5 175.5t175.5 72.5h125v172h111v-172h125q103 0 175 -72.5t72 -175.5v-58z" />
    <glyph glyph-name="sterling" unicode="&#xa3;" horiz-adv-x="1286" 
d="M315 113h918v-113h-1180v111h37q1 0 4.5 1t5.5 1q60 3 102 47.5t42 105.5v125v455h-191v112h191v330q0 102 73 175t175 73h157q102 0 175 -73t73 -175v-57h-113v39q0 64 -45 109.5t-108 45.5h-121q-63 0 -108.5 -45.5t-45.5 -109.5v-4v-273l-75 -22v-13h65h10h541v-112
h-541v-572v-26q0 -71 -41 -135z" />
    <glyph glyph-name="currency" unicode="&#xa4;" horiz-adv-x="1050" 
d="M57 1071l93 94l139 -155q97 84 237 84q69 0 131.5 -22t104.5 -60l145 153l92 -94l-161 -145q71 -95 71 -242q0 -157 -71 -250l153 -151l-90 -90l-141 155q-44 -41 -109.5 -63.5t-130.5 -22.5q-64 0 -128 22t-105 60l-137 -151l-89 90l148 143q-33 44 -54.5 109.5
t-21.5 138.5q0 151 80 252zM279 676q0 -137 75 -211t166 -74q98 0 171 72.5t73 218.5q0 115 -65 199t-179 84q-110 0 -175.5 -82.5t-65.5 -206.5z" />
    <glyph glyph-name="yen" unicode="&#xa5;" horiz-adv-x="1288" 
d="M1235 1434l-463 -723h240v-113h-312v-164h312v-112h-312v-322h-112v322h-312v112h312v164h-312v113h240l-463 723h125l467 -723l465 723h125zM645 793zM588 680zM700 680z" />
    <glyph glyph-name="brokenbar" unicode="&#xa6;" horiz-adv-x="489" 
d="M176 356h137v-716h-137v716zM313 664h-137v716h137v-716z" />
    <glyph glyph-name="section" unicode="&#xa7;" horiz-adv-x="1062" 
d="M-1098 1821zM-1098 1751zM821 293zM934 293q0 -42 -2 -62q-3 -36 -17 -71q-27 -71 -89.5 -115.5t-141.5 -44.5h-362q-103 0 -176.5 73.5t-73.5 176.5v55h112v-37q0 -64 45.5 -109.5t110.5 -45.5h326q63 0 110 47q45 42 45 108v25q-6 59 -50.5 99t-104.5 40h-344
q-98 0 -169 65.5t-79 161.5q-3 42 0 82q6 108 90 179q-81 65 -90 172q-2 8 -2 22v41v6v2v6v5q6 99 78.5 167t171.5 68h362q103 0 176.5 -73.5t73.5 -176.5v-55h-113v37q0 65 -45.5 110t-109.5 45h-326q-65 0 -110.5 -45.5t-45.5 -109.5v-8q0 -65 46 -110.5t110 -45.5h344
q95 0 165.5 -62t82.5 -155q5 -34 0 -96q-3 -38 -17 -72q-21 -61 -75 -103q80 -67 92 -161q0 -5 1 -16.5t1 -16.5v-2zM821 700v25v-12q-2 62 -47 106.5t-108 44.5h-326q-64 0 -110 -46t-46 -109v-9q0 -64 45.5 -109.5t110.5 -45.5h326q63 0 110 47q45 45 45 108z" />
    <glyph glyph-name="dieresis" unicode="&#xa8;" 
d="M395 1272q0 43 30 73.5t73 30.5t71.5 -30t28.5 -74q0 -43 -29 -74t-73 -31q-43 0 -72 31.5t-29 73.5zM14 1272q0 43 30.5 73.5t74.5 30.5q41 0 69.5 -30t28.5 -74q0 -43 -29 -74t-73 -31q-42 0 -71.5 31.5t-29.5 73.5z" />
    <glyph glyph-name="copyright" unicode="&#xa9;" horiz-adv-x="1325" 
d="M53 606q0 124 48.5 237t130 195t195 130.5t237.5 48.5q165 0 305 -82t221.5 -223t81.5 -306t-81.5 -305.5t-221.5 -222.5t-305 -82q-166 0 -307 82t-222.5 222.5t-81.5 305.5zM662 1108q-137 0 -253 -67.5t-183.5 -183t-67.5 -251.5q0 -209 147.5 -356.5t356.5 -147.5
q136 0 251.5 67.5t182.5 183.5t67 253q0 136 -67 251.5t-182.5 183t-251.5 67.5zM285 801q0 85 59.5 144t142.5 59h344q87 0 146 -56t59 -145v-49h-92v34q0 52 -37 88.5t-90 36.5h-313q-52 0 -89.5 -37.5t-37.5 -89.5v-360q3 -51 39.5 -86t87.5 -35h313q53 0 90 37.5
t37 89.5v31h92v-47q0 -83 -60 -143t-145 -60h-344q-82 0 -139.5 55.5t-62.5 137.5v395z" />
    <glyph glyph-name="ordfeminine" unicode="&#xaa;" horiz-adv-x="708" 
d="M279 535q-98 0 -154.5 55.5t-56.5 140.5q0 107 101.5 169.5t285.5 62.5h24v20q0 16 -5.5 34.5t-20 41t-47.5 37t-80 14.5q-103 0 -174 -53l-33 86q92 67 233 67q74 0 126.5 -23.5t80.5 -65t40.5 -90t12.5 -107.5v-219q0 -70 11 -160h-121l-10 86h-5q-80 -96 -208 -96z
M203 739q0 -50 34.5 -78t84.5 -28q44 0 81.5 22t57.5 54q20 26 20 53v112h-26q-49 0 -91 -6.5t-79.5 -21t-59.5 -42t-22 -65.5z" />
    <glyph glyph-name="guillemotleft" unicode="&#xab;" horiz-adv-x="847" 
d="M795 911l-306 -305l306 -307l-80 -80l-305 307l-80 80l80 80l305 305zM520 911l-307 -305l307 -307l-80 -80l-387 387l80 80l307 305z" />
    <glyph glyph-name="logicalnot" unicode="&#xac;" horiz-adv-x="1220" 
d="M82 817h1057v-569h-131v446h-926v123z" />
    <glyph glyph-name="uni00AD" unicode="&#xad;" horiz-adv-x="595" 
d="M61 618h506v-131h-506v131z" />
    <glyph glyph-name="registered" unicode="&#xae;" horiz-adv-x="796" 
d="M53 1063q0 141 101 238.5t247 97.5q143 0 242.5 -97.5t99.5 -238.5t-100 -239.5t-244 -98.5q-145 0 -245.5 98.5t-100.5 239.5zM397 1331q-109 0 -189.5 -79t-80.5 -189q0 -112 80.5 -190t193.5 -78q109 -2 188 77t79 189q0 112 -79 191t-192 79zM307 879h-39v372h197
q25 0 42 -17t19 -42v-76q0 -21 -18 -43q29 -18 29 -49v-90q0 -16 16 -16h12v-39h-28q-17 0 -28 11.5t-11 27.5v100q0 15 -11 27t-26 12h-154v-178zM289 1098v-2h172q15 0 19.5 4.5t4.5 19.5v70q0 14 -4.5 18t-19.5 4h-154v-108z" />
    <glyph glyph-name="macron" unicode="&#xaf;" 
d="M78 1317h461v-117h-461v117z" />
    <glyph glyph-name="degree" unicode="&#xb0;" horiz-adv-x="651" 
d="M59 1128q0 118 79.5 197.5t195.5 79.5q121 0 194.5 -78.5t73.5 -187.5q0 -120 -82 -197.5t-192 -77.5q-118 0 -193.5 77t-75.5 187zM170 1128q0 -71 45.5 -119t114.5 -48q70 0 116 50.5t46 125.5q0 67 -41 119.5t-123 52.5q-74 0 -116 -54.5t-42 -126.5z" />
    <glyph glyph-name="plusminus" unicode="&#xb1;" horiz-adv-x="1079" 
d="M596 948h430v-110h-430v-430h-113v430h-430v110h430v432h113v-432zM53 186v111h973v-111h-973z" />
    <glyph glyph-name="twosuperior" unicode="&#xb2;" horiz-adv-x="636" 
d="M25 983l129 119q140 128 199 205.5t59 150.5q0 62 -40 101.5t-116 39.5q-87 0 -172 -63l-43 94q44 36 111 60t141 24q134 0 202 -68.5t68 -160.5q0 -56 -19 -107t-60.5 -103t-82.5 -93t-110 -101l-62 -57v-4h349v-113h-553v76z" />
    <glyph glyph-name="threesuperior" unicode="&#xb3;" horiz-adv-x="624" 
d="M252 895q-71 0 -135 16.5t-101 40.5l37 103q31 -19 85.5 -36.5t105.5 -17.5q88 0 135 42.5t45 95.5q0 73 -63 109t-154 36h-55v94h57q42 0 82.5 12t72 42.5t31.5 74.5q0 43 -32.5 73t-96.5 30q-94 0 -174 -56l-35 99q39 26 102.5 44.5t133.5 18.5q124 0 187 -55.5
t63 -136.5q0 -62 -42 -111.5t-116 -75.5v-4q84 -12 137 -66.5t53 -131.5q0 -99 -86.5 -169.5t-236.5 -70.5z" />
    <glyph glyph-name="acute" unicode="&#xb4;" 
d="M387 1419h197l-250 -293h-127z" />
    <glyph glyph-name="uni00B5" unicode="&#xb5;" horiz-adv-x="1132" 
d="M150 -39v1030h180v-585q0 -125 55 -203t168 -78q106 0 179 77t73 183v606h180v-719q0 -84 20 -118t74 -37l-14 -131q-35 -9 -64 -9q-70 0 -117.5 43t-58.5 134h-6q-36 -69 -109.5 -120.5t-174.5 -51.5q-71 0 -129 26.5t-89 81.5v-121q0 -270 23 -375h-162q-28 85 -28 367
z" />
    <glyph glyph-name="paragraph" unicode="&#xb6;" horiz-adv-x="948" 
d="M459 1536h436v-1534h-113v1421h-227v-1421h-113v715q-163 8 -276 126.5t-113 282.5q0 107 56 200t149.5 149t200.5 61z" />
    <glyph glyph-name="periodcentered" unicode="&#xb7;" horiz-adv-x="423" 
d="M90 537q0 57 34.5 93t88.5 36t87.5 -36t33.5 -93q0 -55 -34.5 -91t-90.5 -36q-52 0 -85.5 36.5t-33.5 90.5z" />
    <glyph glyph-name="cedilla" unicode="&#xb8;" 
d="M250 -410q-78 0 -139 35l30 88q54 -28 111 -28q38 0 63.5 15t24.5 48q0 73 -160 86l96 172h113l-67 -108q58 -6 100.5 -45t42.5 -97q0 -85 -60.5 -125.5t-154.5 -40.5z" />
    <glyph glyph-name="onesuperior" unicode="&#xb9;" horiz-adv-x="499" 
d="M362 907h-143v672h-4l-147 -72l-23 107l193 92h124v-799z" />
    <glyph glyph-name="ordmasculine" unicode="&#xba;" horiz-adv-x="727" 
d="M37 866q0 155 97 249.5t235 94.5q146 0 233.5 -93t87.5 -240q-1 -85 -29.5 -152.5t-76 -107.5t-104.5 -61t-118 -21q-139 0 -232 91.5t-93 239.5zM174 868q0 -98 56.5 -164.5t134.5 -66.5q82 0 135 65t53 170q0 40 -11.5 80t-33.5 76t-60.5 58t-87.5 22q-61 0 -105 -37.5
t-62.5 -90.5t-18.5 -112z" />
    <glyph glyph-name="guillemotright" unicode="&#xbb;" horiz-adv-x="847" 
d="M520 604l-80 -80l-307 -305l-80 80l307 305l-307 307l80 80l307 -307zM715 684l80 -80l-80 -80l-305 -305l-80 80l305 305l-305 307l80 80z" />
    <glyph glyph-name="onequarter" unicode="&#xbc;" horiz-adv-x="1554" 
d="M1223 211h-410v80l395 518h150v-498h123v-100h-123v-211h-135v211zM283 -23l778 1377h115l-777 -1377h-116zM88 1253l193 90h125v-798h-144v674h-4l-147 -72zM1157 569l-196 -256l2 -2h260v242q0 18 6 129h-4q-12 -20 -34 -57t-34 -56z" />
    <glyph glyph-name="onehalf" unicode="&#xbd;" horiz-adv-x="1554" 
d="M901 76l129 119q141 131 199.5 207t58.5 149q0 63 -39.5 103t-115.5 40q-87 0 -172 -63l-43 94q45 36 111 60t140 24q134 0 202.5 -68.5t68.5 -160.5q0 -38 -8 -72.5t-30 -71.5t-39 -62t-58.5 -67.5t-62.5 -62t-75 -70.5l-61 -57v-4h348v-113h-553v76zM358 -23h-114
l776 1377h115zM82 1147l-23 106l193 90h125v-798h-144v674h-4z" />
    <glyph glyph-name="threequarters" unicode="&#xbe;" horiz-adv-x="1554" 
d="M836 291l395 518h149v-498h123v-100h-123v-211h-135v211h-409v80zM297 535q-71 0 -135 16.5t-101 40.5l37 102q28 -19 83 -36t108 -17q88 0 135 42t45 95q0 71 -61 107.5t-148 36.5h-8h-55v94h55q42 0 82.5 12t72 42.5t31.5 74.5q0 43 -32.5 72.5t-98.5 29.5
q-93 0 -172 -55l-35 96q39 28 101.5 47t132.5 19q125 0 188.5 -56t63.5 -137q0 -62 -41.5 -110.5t-114.5 -73.5v-4q84 -12 137.5 -67t53.5 -132q0 -100 -87 -169.5t-237 -69.5zM358 -23l779 1377h114l-776 -1377h-117zM1180 569l-199 -256l2 -2h262v242q0 18 6 129h-4
q-7 -12 -30.5 -53t-36.5 -60z" />
    <glyph glyph-name="questiondown" unicode="&#xbf;" horiz-adv-x="1085" 
d="M0 279zM53 227v179q0 94 67 160.5t161 66.5h118q58 0 100 42t42 101l2 592h102v-610q0 -94 -66.5 -161t-160.5 -67h-119q-60 0 -101.5 -41t-41.5 -100v-143q0 -60 42 -102t99 -42h489q60 0 102 42t42 102v55h102v-74q0 -94 -66.5 -160.5t-160.5 -66.5h-524q-59 0 -113 31
q-52 30 -83.5 82t-31.5 114zM537 1456q-8 24 2.5 46.5t33.5 31.5q23 8 46 -3t30 -34q9 -23 -1.5 -46t-33.5 -32q-23 -8 -45.5 3t-31.5 34zM53 279z" />
    <glyph glyph-name="Agrave" unicode="&#xc0;" horiz-adv-x="1402" 
d="M659 1638l-92 252h95l92 -252h-95zM1305 109h45v-109h-62q-61 0 -104 43t-66 115l-135 460h-557l-135 -460q-51 -158 -170 -158h-68v109h56q22 0 36.5 17.5t30.5 49.5l408 1360h243l408 -1360q28 -67 70 -67zM1012 727v12l-76 21l-231 764l-244 -797h551z" />
    <glyph glyph-name="Aacute" unicode="&#xc1;" horiz-adv-x="1402" 
d="M752 1638l90 252h-94l-91 -252h95zM1305 109h45v-109h-62q-61 0 -104 43t-66 115l-135 460h-557l-135 -460q-51 -158 -170 -158h-68v109h56q22 0 36.5 17.5t30.5 49.5l408 1360h243l408 -1360q28 -67 70 -67zM1012 727v12l-76 21l-231 764l-244 -797h551z" />
    <glyph glyph-name="Acircumflex" unicode="&#xc2;" horiz-adv-x="1402" 
d="M625 1636l80 215l77 -215h95l-95 254h-157l-95 -254h95zM1305 109h45v-109h-62q-61 0 -104 43t-66 115l-135 460h-557l-135 -460q-51 -158 -170 -158h-68v109h56q22 0 36.5 17.5t30.5 49.5l408 1360h243l408 -1360q28 -67 70 -67zM1012 727v12l-76 21l-231 764l-244 -797
h551z" />
    <glyph glyph-name="Atilde" unicode="&#xc3;" horiz-adv-x="1253" 
d="M236 0h-185l471 1380h213l471 -1380h-190l-148 434h-489zM551 973l-135 -400h418l-138 398q-29 85 -71 252h-4q-43 -171 -70 -250zM379 1464q-2 95 36 152t103 57q52 0 123 -41q68 -37 98 -37q25 0 38.5 16.5t17.5 63.5h94q3 -198 -137 -198q-52 0 -125 39q-7 4 -27 14
t-27.5 13t-20.5 7t-24 4q-43 0 -53 -90h-96z" />
    <glyph glyph-name="Adieresis" unicode="&#xc4;" horiz-adv-x="1402" 
d="M1305 109h45v-109h-62q-61 0 -104 43t-66 115l-135 460h-557l-135 -460q-51 -158 -170 -158h-68v109h56q22 0 36.5 17.5t30.5 49.5l408 1360h243l408 -1360q28 -67 70 -67zM1012 727v12l-76 21l-231 764l-244 -797h551zM502 1681q-9 25 2.5 50t36.5 34q26 9 50.5 -3
t33.5 -38q9 -25 -2.5 -49t-36.5 -33q-27 -9 -51 2t-33 37zM778 1681q-9 25 2.5 50t36.5 34q26 9 50.5 -3t33.5 -38q9 -25 -2.5 -49t-36.5 -33q-27 -9 -51 2t-33 37z" />
    <glyph glyph-name="Aring" unicode="&#xc5;" horiz-adv-x="1402" 
d="M719 1968q61 0 101 -40.5t40 -102.5v-41q0 -62 -42 -104t-103 -42h-31q-61 0 -101 42t-40 104v41q0 61 41.5 102t103.5 41h31zM788 1782v43q0 37 -23 56.5t-63 19.5h-2q-40 0 -63 -19.5t-23 -56.5v-43q0 -37 23 -56.5t63 -19.5h2q40 0 63 19.5t23 56.5zM1305 109h45v-109
h-62q-61 0 -104 43t-66 115l-135 460h-557l-135 -460q-51 -158 -170 -158h-68v109h56q22 0 36.5 17.5t30.5 49.5l408 1360h243l408 -1360q28 -67 70 -67zM461 727h551v12l-76 21l-231 764z" />
    <glyph glyph-name="AE" unicode="&#xc6;" horiz-adv-x="1613" 
d="M-2 0l631 1380h864l-2 -149h-586l53 -440h515v-148h-492l61 -493h506l-2 -150h-657l-62 485h-424l-221 -485h-184zM463 631h344l-45 397q-22 176 -25 223h-8q-27 -72 -88 -217z" />
    <glyph glyph-name="Ccedilla" unicode="&#xc7;" horiz-adv-x="1198" 
d="M653 -14q-262 30 -420.5 209.5t-158.5 482.5q0 161 53 296t147 229.5t229 147t294 52.5q114 0 198 -19t127 -43l-43 -145q-117 57 -278 57q-246 0 -392.5 -150.5t-146.5 -418.5q0 -257 140.5 -406t390.5 -149q171 0 292 57l35 -141q-115 -62 -358 -65l-51 -82
q61 -11 102 -52t41 -100q0 -84 -61 -125t-150 -41q-80 0 -145 35l28 92q50 -29 113 -29q38 0 63 16t25 48q0 68 -160 88z" />
    <glyph glyph-name="Egrave" unicode="&#xc8;" horiz-adv-x="1165" 
d="M506 1638l-90 252h92l90 -252h-92zM88 111h1024v-111h-1059v1536h1059v-111h-948v-430l-76 -22v-12h1024v-111h-948v-707l-76 -20v-12z" />
    <glyph glyph-name="Eacute" unicode="&#xc9;" horiz-adv-x="1165" 
d="M676 1890l-90 -252h-94l90 252h94zM88 111h1024v-111h-1059v1536h1059v-111h-948v-430l-76 -22v-12h1024v-111h-948v-707l-76 -20v-12z" />
    <glyph glyph-name="Ecircumflex" unicode="&#xca;" horiz-adv-x="1165" 
d="M584 1858l-78 -220h-94l90 252h164l90 -252h-94zM88 111h1024v-111h-1059v1536h1059v-111h-948v-430l-76 -22v-12h1024v-111h-948v-707l-76 -20v-12z" />
    <glyph glyph-name="Edieresis" unicode="&#xcb;" horiz-adv-x="1165" 
d="M383 1681q-9 26 2.5 50.5t36.5 33.5q26 9 50.5 -3t33.5 -38q9 -25 -2.5 -49t-36.5 -33q-27 -9 -51 2t-33 37zM659 1681q-9 26 3 50.5t38 33.5q25 9 49 -3t33 -38q9 -25 -2 -49t-37 -33q-25 -9 -50 2t-34 37zM88 111h1024v-111h-1059v1536h1059v-111h-948v-430l-76 -22
v-12h1024v-111h-948v-707l-76 -20v-12z" />
    <glyph glyph-name="Igrave" unicode="&#xcc;" horiz-adv-x="219" 
d="M63 1636l-92 254h92l93 -254h-93zM53 1536h113v-1536h-113v1536z" />
    <glyph glyph-name="Iacute" unicode="&#xcd;" horiz-adv-x="299" 
d="M246 1890l-90 -252h-95l91 252h94zM53 1536h113v-1536h-113v1536z" />
    <glyph glyph-name="Icircumflex" unicode="&#xce;" horiz-adv-x="456" 
d="M227 1858l-80 -224h-94l92 254h166l92 -254h-96zM172 1536h113v-1536h-113v1536z" />
    <glyph glyph-name="Idieresis" unicode="&#xcf;" horiz-adv-x="514" 
d="M57 1681q-9 26 2.5 50.5t36.5 33.5q26 9 50.5 -2.5t33.5 -36.5q9 -26 -2.5 -50.5t-36.5 -33.5q-26 -9 -50.5 2.5t-33.5 36.5zM334 1681q-9 26 2.5 50.5t36.5 33.5q26 9 50.5 -2.5t33.5 -36.5q9 -26 -2.5 -50.5t-36.5 -33.5q-26 -9 -50.5 2.5t-33.5 36.5zM201 1536h112
v-1536h-112v1536z" />
    <glyph glyph-name="Eth" unicode="&#xd0;" horiz-adv-x="1374" 
d="M-2 629v143h168v594q188 31 379 31q135 0 249 -24t208 -76.5t159 -131t101 -190.5t36 -252q0 -338 -198 -539q-96 -97 -253 -147.5t-358 -50.5q-165 0 -323 14v629h-168zM344 772h369v-143h-369v-492q60 -8 178 -8q286 0 437 152.5t151 439.5q2 254 -139.5 394
t-417.5 140q-124 0 -209 -18v-465z" />
    <glyph glyph-name="Ntilde" unicode="&#xd1;" horiz-adv-x="1347" 
d="M156 0v1380h196l441 -698q153 -243 245 -449l6 3q-20 230 -20 567v577h168v-1380h-180l-439 700q-172 276 -256 461l-6 -2q13 -226 13 -569v-590h-168zM430 1464q-2 95 36 152t103 57q50 0 121 -41q68 -37 98 -37q25 0 38.5 16.5t17.5 63.5h94q3 -198 -137 -198
q-49 0 -125 39q-6 3 -21.5 11t-21.5 11t-17 8t-19.5 6.5t-16.5 1.5q-44 0 -54 -90h-96z" />
    <glyph glyph-name="Ograve" unicode="&#xd2;" horiz-adv-x="1286" 
d="M616 1638l-90 252h95l90 -252h-95zM737 1536q215 -3 355.5 -143.5t140.5 -350.5v-522q0 -105 -38.5 -200.5t-104.5 -166t-158.5 -112t-194.5 -41.5h-162q-139 0 -259 68t-191.5 188.5t-71.5 265.5v520q0 137 69 250.5t189 178.5t264 65h162zM1118 569v426
q0 210 -118.5 320t-313.5 110h-65q-95 0 -177 -27t-145.5 -79t-100 -135.5t-36.5 -188.5v-426q0 -105 37 -192.5t100 -144.5t146 -88t176 -31h67q190 0 310 122t120 334z" />
    <glyph glyph-name="Oacute" unicode="&#xd3;" horiz-adv-x="1286" 
d="M737 1536q215 -3 355.5 -143.5t140.5 -350.5v-522q0 -105 -38.5 -200.5t-104.5 -166t-158.5 -112t-194.5 -41.5h-162q-139 0 -259 68t-191.5 188.5t-71.5 265.5v520q0 137 69 250.5t189 178.5t264 65h162zM1118 569v426q0 210 -118.5 320t-313.5 110h-65q-95 0 -177 -27
t-145.5 -79t-100 -135.5t-36.5 -188.5v-426q0 -105 37 -192.5t100 -144.5t146 -88t176 -31h67q190 0 310 122t120 334zM698 1638l90 252h-92l-90 -252h92z" />
    <glyph glyph-name="Ocircumflex" unicode="&#xd4;" horiz-adv-x="1286" 
d="M563 1638l80 222l80 -222h92l-90 252h-164l-90 -252h92zM737 1536q215 -3 355.5 -143.5t140.5 -350.5v-522q0 -105 -38.5 -200.5t-104.5 -166t-158.5 -112t-194.5 -41.5h-162q-139 0 -259 68t-191.5 188.5t-71.5 265.5v520q0 137 69 250.5t189 178.5t264 65h162z
M1118 569v426q0 210 -118.5 320t-313.5 110h-65q-95 0 -177 -27t-145.5 -79t-100 -135.5t-36.5 -188.5v-426q0 -105 37 -192.5t100 -144.5t146 -88t176 -31h67q190 0 310 122t120 334z" />
    <glyph glyph-name="Otilde" unicode="&#xd5;" horiz-adv-x="1411" 
d="M74 680q0 162 48 298t133 229.5t203 145.5t255 52q187 0 328.5 -89t217.5 -247.5t76 -363.5q0 -173 -50.5 -312.5t-138 -229.5t-203.5 -138t-249 -48q-182 0 -323 88t-219 248t-78 367zM707 1260q-108 0 -194.5 -47.5t-140 -128t-82 -183t-28.5 -217.5q0 -112 30 -213
t85 -178.5t140 -123.5t188 -46q137 0 239 78.5t152.5 207t50.5 287.5q0 84 -17 164.5t-53 153t-86.5 127.5t-124 87t-159.5 32zM451 1470q-2 93 36 150t103 57q50 0 121 -41q68 -37 98 -37q25 0 38 16.5t17 63.5h94q3 -198 -137 -198q-49 0 -125 39q-8 4 -26 14t-26 13.5
t-20.5 7.5t-23.5 4q-43 0 -53 -89h-96z" />
    <glyph glyph-name="Odieresis" unicode="&#xd6;" horiz-adv-x="1286" 
d="M442 1681q-9 26 3 50.5t38 33.5q25 9 49 -2.5t33 -36.5q9 -27 -2 -51t-37 -33t-50.5 2.5t-33.5 36.5zM721 1681q9 -25 33 -36.5t49 -2.5q26 9 37 33t2 51q-7 25 -32 36.5t-50 2.5q-26 -9 -37 -33t-2 -51zM575 1536h162q215 -3 355.5 -143.5t140.5 -350.5v-522
q0 -105 -38.5 -200.5t-104.5 -166t-158.5 -112t-194.5 -41.5h-162q-139 0 -259 68t-191.5 188.5t-71.5 265.5v520q0 137 69 250.5t189 178.5t264 65zM1118 569v426q0 210 -118.5 320t-313.5 110h-65q-95 0 -177 -27t-145.5 -79t-100 -135.5t-36.5 -188.5v-426
q0 -105 37 -192.5t100 -144.5t146 -88t176 -31h67q190 0 310 122t120 334z" />
    <glyph glyph-name="multiply" unicode="&#xd7;" horiz-adv-x="874" 
d="M821 936l-305 -305l305 -305l-80 -78l-305 303l-303 -303l-80 78l305 305l-305 305l80 78l303 -303l305 303z" />
    <glyph glyph-name="Oslash" unicode="&#xd8;" horiz-adv-x="1388" 
d="M791 1536q215 -3 355 -143.5t140 -350.5v-522q0 -140 -64.5 -259.5t-178.5 -190t-252 -70.5h-162q-139 0 -259 68t-192 188.5t-72 265.5v520q0 137 69 250.5t189.5 178.5t264.5 65h162zM1171 569v426q0 210 -118 320t-312 110h-67q-94 0 -176 -27t-145 -79t-99.5 -135.5
t-36.5 -188.5v-426q0 -106 36.5 -193t99 -144t145.5 -88t176 -31h67q190 0 310 122t120 334zM1335 1536l-1138 -1536h-144l1141 1536h141z" />
    <glyph glyph-name="Ugrave" unicode="&#xd9;" horiz-adv-x="1284" 
d="M53 1536h111l2 -1014q0 -144 87 -248t228 -147q31 -8 70 -8q187 0 453 235v1182h110v-1358q0 -28 20 -47.5t48 -19.5h49v-111h-68q-53 0 -94.5 31.5t-56.5 81.5l51 221h-14l-45 -78q-50 -53 -97.5 -94t-106 -80t-123.5 -60.5t-130 -21.5q-130 0 -243.5 67.5t-181 183.5
t-67.5 251zM457 1890h92l90 -252h-94z" />
    <glyph glyph-name="Uacute" unicode="&#xda;" horiz-adv-x="1284" 
d="M692 1890l-90 -252h-92l90 252h92zM1182 111h49v-111h-68q-53 0 -94.5 31.5t-56.5 81.5l51 221h-14l-45 -78q-83 -89 -184 -160.5t-195 -89.5q-145 -24 -277.5 38t-212.5 185.5t-80 272.5l-2 1034h111l2 -1014q0 -144 87 -248t228 -147q209 -53 523 227v1182h110v-1358
q0 -28 20 -47.5t48 -19.5z" />
    <glyph glyph-name="Ucircumflex" unicode="&#xdb;" horiz-adv-x="1284" 
d="M55 502l-2 1034h111l2 -1014q0 -144 87 -248t228 -147q31 -8 70 -8q187 0 453 235v1182h110v-1358q0 -28 20 -47.5t48 -19.5h49v-111h-68q-53 0 -94.5 31.5t-56.5 81.5l51 221h-14l-45 -78q-50 -53 -97.5 -94t-106 -80t-123.5 -60.5t-130 -21.5q-130 0 -243.5 67.5
t-181 183.5t-67.5 251zM477 1890h164l90 -252h-92l-80 220l-78 -220h-94z" />
    <glyph glyph-name="Udieresis" unicode="&#xdc;" horiz-adv-x="1284" 
d="M354 1679q-9 25 2 49t37 33q27 9 51 -2t33 -37q9 -25 -2.5 -50t-36.5 -32q-27 -9 -51 2t-33 37zM631 1679q-9 25 2.5 49t36.5 33q27 9 51 -2t33 -37q9 -25 -2.5 -50t-36.5 -32q-27 -9 -51 2t-33 37zM1182 111h49v-111h-68q-53 0 -94.5 31.5t-56.5 81.5l51 221h-14
l-45 -78q-83 -89 -184 -160.5t-195 -89.5q-145 -24 -277.5 38t-212.5 185.5t-80 272.5l-2 1034h111l2 -1014q0 -144 87 -248t228 -147q209 -53 523 227v1182h110v-1358q0 -28 20 -47.5t48 -19.5z" />
    <glyph glyph-name="Yacute" unicode="&#xdd;" horiz-adv-x="1284" 
d="M586 705l-533 831h125l463 -723l465 723h125l-533 -831v-705h-112v705zM688 1638h-92l90 252h92z" />
    <glyph glyph-name="Thorn" unicode="&#xde;" horiz-adv-x="1087" 
d="M156 1380h176v-268q77 14 196 14q76 0 144 -12.5t129.5 -41.5t106.5 -71.5t71.5 -107.5t26.5 -145q0 -143 -68 -243.5t-183.5 -148t-267.5 -47.5q-83 0 -155 10v-319h-176v1380zM332 969v-504q56 -12 153 -12q164 0 253 73t89 201q0 129 -85 193.5t-230 64.5
q-114 0 -180 -16z" />
    <glyph glyph-name="germandbls" unicode="&#xdf;" horiz-adv-x="1122" 
d="M330 0h-180v926q0 318 147 446q120 105 299 105q154 0 259.5 -92.5t105.5 -254.5q0 -97 -50 -167q-145 -61 -145 -166q0 -33 15 -64.5t32 -52.5t57 -62q37 -39 49.5 -52.5t42 -51t41 -63t22.5 -66t11 -82.5q0 -146 -99 -236t-267 -90q-135 0 -217 43l32 138
q80 -41 172 -41q95 0 148 49t53 123q0 62 -26.5 109.5t-83.5 101.5q-40 38 -62.5 62.5t-48.5 59.5t-37.5 72t-11.5 78q0 79 47 144.5t137 107.5q16 40 16 88q0 104 -58 163.5t-155 59.5q-122 0 -183.5 -94.5t-61.5 -306.5v-934z" />
    <glyph glyph-name="agrave" unicode="&#xe0;" horiz-adv-x="1075" 
d="M444 1065l-90 252h92l91 -252h-93zM815 406l-47 -87q-34 -61 -73 -112t-89 -96.5t-104.5 -71t-120 -36.5t-135.5 7q-193 43 -193 295q-1 124 70 198.5t176 74.5h496v120q0 63 -45.5 108.5t-108.5 45.5h-324q-63 0 -108 -45.5t-45 -108.5v-36h-111v55q0 101 72.5 173.5
t173.5 72.5h360q101 0 173.5 -72.5t72.5 -173.5v-535q0 -28 20 -47.5t48 -19.5h49v-111h-68q-66 0 -112.5 47t-46.5 113v88l34 154h-14zM801 416v63h-504q-58 -4 -99 -47t-44 -102v-35.5t1.5 -33.5t4 -33.5l7.5 -28.5t12.5 -27.5t19.5 -21t27.5 -17.5t37 -9.5t47.5 -4.5h17
q73 -1 146 27t124 64t99.5 85t68.5 74t35 47z" />
    <glyph glyph-name="aacute" unicode="&#xe1;" horiz-adv-x="1075" 
d="M53 307q-1 122 70 196.5t176 74.5h496v120q0 64 -45.5 109t-108.5 45h-322q-65 0 -110 -45t-45 -109v-36h-111v55q0 101 72.5 173.5t173.5 72.5h360q101 0 173.5 -72.5t72.5 -173.5v-535q0 -28 20 -47.5t48 -19.5h49v-111h-68q-66 0 -112.5 47t-46.5 113v88l34 154h-14
l-47 -87q-76 -141 -186.5 -230t-247.5 -89q-281 0 -281 307zM154 330v-35.5t1.5 -33.5t4 -33.5l7.5 -28.5t12.5 -27.5t19.5 -21t27.5 -17.5t37 -9.5t47.5 -4.5h17q73 -1 146 27t124 64t99.5 85t68.5 74t35 47v63h-504q-58 -4 -99 -47t-44 -102zM406 1065l92 254h92l-92 -254
h-92z" />
    <glyph glyph-name="acircumflex" unicode="&#xe2;" horiz-adv-x="1075" 
d="M494 1288l-80 -223h-95l91 252h165l91 -252h-95zM815 406l-47 -87q-34 -61 -73 -112t-89 -96.5t-104.5 -71t-120 -36.5t-135.5 7q-193 43 -193 295q-1 124 70 198.5t176 74.5h496v120q0 63 -45.5 108.5t-108.5 45.5h-324q-63 0 -108 -45.5t-45 -108.5v-36h-111v55
q0 101 72.5 173.5t173.5 72.5h360q101 0 173.5 -72.5t72.5 -173.5v-535q0 -28 20 -47.5t48 -19.5h49v-111h-68q-66 0 -112.5 47t-46.5 113v88l34 154h-14zM801 416v63h-504q-58 -4 -99 -47t-44 -102v-35.5t1.5 -33.5t4 -33.5l7.5 -28.5t12.5 -27.5t19.5 -21t27.5 -17.5
t37 -9.5t47.5 -4.5h17q73 -1 146 27t124 64t99.5 85t68.5 74t35 47z" />
    <glyph glyph-name="atilde" unicode="&#xe3;" horiz-adv-x="987" 
d="M375 -23q-96 0 -166.5 42t-103.5 105.5t-33 137.5q0 180 154 275.5t442 93.5v20q0 29 -3.5 55t-17.5 59.5t-37.5 57.5t-66.5 40.5t-101 15.5q-150 0 -260 -74l-41 121q63 39 149.5 62.5t178.5 23.5q88 0 155.5 -23.5t108.5 -61.5t67 -92t36 -109t10 -118v-370
q0 -143 14 -238h-162l-14 125h-6q-45 -64 -124 -106t-179 -42zM252 283q0 -85 47.5 -128.5t120.5 -43.5q101 0 176.5 62.5t75.5 160.5v172h-29q-391 0 -391 -223zM236 1161q-3 99 34.5 156t104.5 57q21 0 44.5 -7.5t36.5 -13.5t46 -24q8 -4 23 -12t23.5 -12t19.5 -7.5
t20 -3.5q26 0 40 18.5t17 67.5h96q3 -206 -139 -206q-47 0 -127 43q-6 3 -17 9t-15.5 8.5t-12.5 6.5t-12 5.5t-10 3.5t-11 2.5t-10 0.5q-47 0 -53 -92h-98z" />
    <glyph glyph-name="adieresis" unicode="&#xe4;" horiz-adv-x="1075" 
d="M297 1108q-9 25 2.5 49t36.5 33q27 9 51 -2t33 -37q9 -25 -2.5 -50t-36.5 -34q-26 -9 -50.5 3t-33.5 38zM573 1108q-9 25 3 49t38 33q25 9 49 -2t33 -37q9 -25 -2 -50t-37 -34q-25 -9 -50 3t-34 38zM815 406l-47 -87q-34 -61 -73 -112t-89 -96.5t-104.5 -71t-120 -36.5
t-135.5 7q-193 43 -193 295q-1 124 70 198.5t176 74.5h496v120q0 63 -45.5 108.5t-108.5 45.5h-324q-63 0 -108 -45.5t-45 -108.5v-36h-111v55q0 101 72.5 173.5t173.5 72.5h360q101 0 173.5 -72.5t72.5 -173.5v-535q0 -28 20 -47.5t48 -19.5h49v-111h-68q-66 0 -112.5 47
t-46.5 113v88l34 154h-14zM801 416v63h-504q-58 -4 -99 -47t-44 -102v-35.5t1.5 -33.5t4 -33.5l7.5 -28.5t12.5 -27.5t19.5 -21t27.5 -17.5t37 -9.5t47.5 -4.5h17q73 -1 146 27t124 64t99.5 85t68.5 74t35 47z" />
    <glyph glyph-name="aring" unicode="&#xe5;" horiz-adv-x="1075" 
d="M514 1397q61 0 100 -41t39 -103v-41q0 -62 -40.5 -102.5t-102.5 -40.5h-33q-61 0 -101 40.5t-40 102.5v41q0 61 41.5 102.5t103.5 41.5h33zM584 1212v41q0 37 -24.5 57.5t-63.5 20.5h-2q-39 0 -62.5 -20.5t-23.5 -57.5v-41q0 -37 23.5 -57t62.5 -20h2q40 0 64 20t24 57z
M815 406l-47 -87q-34 -61 -73 -112t-89 -96.5t-104.5 -71t-120 -36.5t-135.5 7q-193 43 -193 295q-1 124 70 198.5t176 74.5h496v120q0 63 -45.5 108.5t-108.5 45.5h-324q-63 0 -108 -45.5t-45 -108.5v-36h-111v55q0 101 72.5 173.5t173.5 72.5h360q101 0 173.5 -72.5
t72.5 -173.5v-535q0 -28 20 -47.5t48 -19.5h49v-111h-68q-66 0 -112.5 47t-46.5 113v88l34 154h-14zM801 416v63h-504q-58 -4 -99 -47t-44 -102v-35.5t1.5 -33.5t4 -33.5l7.5 -28.5t12.5 -27.5t19.5 -21t27.5 -17.5t37 -9.5t47.5 -4.5h17q73 -1 146 27t124 64t99.5 85
t68.5 74t35 47z" />
    <glyph glyph-name="ae" unicode="&#xe6;" horiz-adv-x="1583" 
d="M74 260q0 170 148.5 264t422.5 94h25v41q0 19 -4.5 42t-19 56t-38 59t-67.5 44.5t-101 18.5q-68 0 -138 -21t-116 -53l-43 117q65 42 150 66t160 24q252 0 319 -209h4q50 98 139.5 153.5t206.5 55.5q63 0 117 -16.5t92.5 -44.5t70 -66.5t51 -79.5t32.5 -86t18.5 -85
t5.5 -77q0 -53 -6 -80h-665q-4 -172 84 -266t233 -94q153 0 270 55l33 -127q-129 -68 -325 -68q-130 0 -232.5 58t-144.5 162h-6q-46 -103 -143 -161.5t-224 -58.5q-147 0 -228 83.5t-81 199.5zM674 498h-29q-76 0 -140 -9.5t-124 -33t-94.5 -69.5t-34.5 -112
q0 -76 49.5 -119.5t126.5 -43.5q106 0 176 68.5t70 172.5v146zM838 606h499q1 32 -5 67.5t-23 74t-43 68.5t-68 49.5t-94 19.5q-64 0 -116 -27.5t-83 -70.5t-48 -89.5t-19 -91.5z" />
    <glyph glyph-name="ccedilla" unicode="&#xe7;" horiz-adv-x="915" 
d="M492 -14q-189 23 -301.5 158.5t-112.5 340.5q0 230 146 378.5t386 148.5q75 0 142.5 -16t107.5 -38l-41 -137q-88 47 -209 47q-164 0 -257 -106t-93 -268q0 -168 97 -268.5t247 -100.5q121 0 221 47l31 -135q-112 -55 -258 -57l-51 -82q61 -11 102 -50.5t41 -99.5
q0 -86 -60.5 -128t-152.5 -42q-84 0 -143 35l31 92q50 -29 112 -29q88 0 88 66q-3 70 -159 86z" />
    <glyph glyph-name="egrave" unicode="&#xe8;" horiz-adv-x="958" 
d="M299 0q-101 0 -173.5 72.5t-72.5 173.5v452q0 69 26 122.5t66.5 82.5t81.5 43.5t78 14.5h354q101 0 173.5 -72.5t72.5 -173.5v-82q0 -246 -309 -246q-65 1 -131 31t-113.5 69.5t-90.5 88.5t-64 80.5t-33 52.5l-41 77h-19l60 -249v-273q0 -63 45.5 -108t109.5 -45h322
q63 0 108.5 45t45.5 108v37h110v-55q0 -101 -72.5 -173.5t-173.5 -72.5h-360zM164 786q16 -22 35 -45t67.5 -71t97.5 -82.5t120 -62t141 -27.5h16q63 0 108.5 45t45.5 108v54q-3 57 -43 98t-97 47h-432q-23 -5 -39.5 -22t-19.5 -42zM354 1317h92l91 -252h-95z" />
    <glyph glyph-name="eacute" unicode="&#xe9;" horiz-adv-x="958" 
d="M659 961q101 0 173.5 -72.5t72.5 -173.5v-82q0 -246 -309 -246q-65 1 -131 31t-113.5 69.5t-90.5 88.5t-64 80.5t-33 52.5l-41 77h-19l60 -249v-273q0 -63 45 -108t108 -45h324q63 0 108.5 45t45.5 108v37h110v-55q0 -101 -72.5 -173.5t-173.5 -72.5h-360
q-101 0 -173.5 72.5t-72.5 173.5v452q0 68 26 121.5t66.5 83t81.5 44t78 14.5h354zM795 651v54q-3 57 -43 98t-97 47h-432q-23 -5 -39.5 -22t-19.5 -42q16 -22 35 -45t67.5 -71t97.5 -82.5t120 -62t141 -27.5h16q63 0 108.5 45t45.5 108zM528 1065l90 254h-92l-92 -254h94z
M528 1065l90 254h-92l-92 -254h94z" />
    <glyph glyph-name="ecircumflex" unicode="&#xea;" horiz-adv-x="958" 
d="M659 961q101 0 173.5 -72.5t72.5 -173.5v-82q0 -246 -309 -246q-65 1 -131 31t-113.5 69.5t-90.5 88.5t-64 80.5t-33 52.5l-41 77h-19l60 -249v-273q0 -63 45 -108t108 -45h324q63 0 108.5 45t45.5 108v37h110v-55q0 -101 -72.5 -173.5t-173.5 -72.5h-360
q-101 0 -173.5 72.5t-72.5 173.5v452q0 68 26 121.5t66.5 83t81.5 44t78 14.5h354zM795 651v54q-3 57 -43 98t-97 47h-432q-23 -5 -39.5 -22t-19.5 -42q16 -22 35 -45t67.5 -71t97.5 -82.5t120 -62t141 -27.5h16q63 0 108.5 45t45.5 108zM414 1065l80 223l77 -223h95
l-91 252h-165l-91 -252h95z" />
    <glyph glyph-name="edieresis" unicode="&#xeb;" horiz-adv-x="958" 
d="M281 1106q-9 27 1.5 51t36.5 33q25 9 49 -2.5t33 -36.5q9 -27 -2 -51t-37 -33q-25 -9 -49.5 2.5t-31.5 36.5zM557 1106q-9 27 2 51t37 33q25 9 50 -2.5t34 -36.5q9 -26 -3 -50.5t-38 -33.5q-25 -9 -49 2.5t-33 36.5zM305 961h354q101 0 173.5 -72.5t72.5 -173.5v-82
q0 -246 -309 -246q-65 1 -131 31t-113.5 69.5t-90.5 88.5t-64 80.5t-33 52.5l-41 77h-19l60 -249v-273q0 -63 45 -108t108 -45h324q63 0 108.5 45t45.5 108v37h110v-55q0 -101 -72.5 -173.5t-173.5 -72.5h-360q-101 0 -173.5 72.5t-72.5 173.5v452q0 68 26 121.5t66.5 83
t81.5 44t78 14.5zM795 651v54q-3 57 -43 98t-97 47h-432q-23 -5 -39.5 -22t-19.5 -42q16 -22 35 -45t67.5 -71t97.5 -82.5t120 -62t141 -27.5h16q63 0 108.5 45t45.5 108z" />
    <glyph glyph-name="igrave" unicode="&#xec;" horiz-adv-x="395" 
d="M141 141l-2 820h99l2 -803q0 -25 17 -42.5t42 -17.5h43v-98h-59q-59 0 -100.5 41.5t-41.5 99.5zM141 1065l-88 252h92l91 -252h-95z" />
    <glyph glyph-name="iacute" unicode="&#xed;" horiz-adv-x="309" 
d="M53 961h99l2 -803q0 -25 17 -42.5t42 -17.5h43v-98h-59q-59 0 -100.5 41.5t-41.5 99.5zM55 1065l95 254h90l-90 -254h-95z" />
    <glyph glyph-name="icircumflex" unicode="&#xee;" horiz-adv-x="452" 
d="M178 961h98v-803q0 -25 18 -42.5t44 -17.5h41v-98h-60q-59 0 -100 41t-41 100v820zM143 1317h166l90 -252h-94l-78 223l-80 -223h-94z" />
    <glyph glyph-name="idieresis" unicode="&#xef;" horiz-adv-x="514" 
d="M57 1108q-9 25 2.5 49t36.5 33q27 9 51 -2t33 -37q9 -25 -2.5 -50t-36.5 -34q-26 -9 -50.5 3t-33.5 38zM334 1108q-9 25 2.5 49t36.5 33q27 9 51 -2t33 -37q9 -25 -2.5 -50t-36.5 -34q-26 -9 -50.5 3t-33.5 38zM215 141l-2 820h98l2 -803q0 -25 17.5 -42.5t42.5 -17.5h43
v-98h-60q-58 0 -99.5 41t-41.5 100z" />
    <glyph glyph-name="eth" unicode="&#xf0;" horiz-adv-x="1107" 
d="M78 483q0 116 38.5 213t102.5 160.5t146 98.5t170 36q66 0 120.5 -18.5t110.5 -69.5l4 6q-92 150 -242 265l-290 -136l-39 88l237 113q-82 63 -213 123l80 113q147 -66 287 -166l260 125l45 -91l-217 -102q170 -139 259 -323.5t89 -401.5q0 -110 -27.5 -201t-73.5 -153
t-108 -104t-129.5 -61.5t-140.5 -19.5q-204 0 -336.5 139t-132.5 367zM262 485q0 -158 81.5 -265t205.5 -107q132 0 212.5 107.5t80.5 277.5q0 188 -70 274q-85 96 -217 96q-61 0 -112 -24t-83.5 -63t-55.5 -90t-32.5 -103t-9.5 -103z" />
    <glyph glyph-name="ntilde" unicode="&#xf1;" horiz-adv-x="1136" 
d="M141 991h160l10 -164h4q41 77 127 131t201 54q45 0 89.5 -11t92.5 -40.5t84.5 -75t60 -122t23.5 -173.5v-590h-180v571q0 131 -54.5 212t-174.5 81q-105 0 -179.5 -81.5t-74.5 -186.5v-596h-180v723q0 145 -9 268zM317 1161q-3 99 35 156t105 57q21 0 44.5 -7.5
t36.5 -13.5t46 -24q8 -4 23 -12t23 -12t19.5 -7.5t20.5 -3.5q25 0 38.5 19t16.5 67h96q3 -206 -139 -206q-48 0 -125 43q-64 36 -88 36q-47 0 -53 -92h-99z" />
    <glyph glyph-name="ograve" unicode="&#xf2;" horiz-adv-x="1017" 
d="M53 233v482q0 101 72.5 173.5t173.5 72.5h420q101 0 173.5 -72.5t72.5 -173.5v-469q0 -101 -72.5 -173.5t-173.5 -72.5h-420q-98 0 -169.5 68t-76.5 165zM164 696v-438q3 -62 47.5 -104.5t107.5 -42.5h381q63 0 108.5 45t45.5 108v432q0 63 -45.5 108.5t-108.5 45.5h-381
q-64 0 -109.5 -45.5t-45.5 -108.5zM469 1065l-90 252h92l90 -252h-92z" />
    <glyph glyph-name="oacute" unicode="&#xf3;" horiz-adv-x="1017" 
d="M53 233v482q0 101 72.5 173.5t173.5 72.5h420q101 0 173.5 -72.5t72.5 -173.5v-469q0 -101 -72.5 -173.5t-173.5 -72.5h-420q-98 0 -169.5 68t-76.5 165zM164 696v-438q3 -62 47.5 -104.5t107.5 -42.5h381q63 0 108.5 45t45.5 108v432q0 63 -45.5 108.5t-108.5 45.5h-381
q-64 0 -109.5 -45.5t-45.5 -108.5zM461 1065l92 254h92l-92 -254h-92z" />
    <glyph glyph-name="ocircumflex" unicode="&#xf4;" horiz-adv-x="1017" 
d="M53 233v482q0 101 72.5 173.5t173.5 72.5h420q101 0 173.5 -72.5t72.5 -173.5v-469q0 -101 -72.5 -173.5t-173.5 -72.5h-420q-98 0 -169.5 68t-76.5 165zM164 696v-438q3 -62 47.5 -104.5t107.5 -42.5h381q63 0 108.5 45t45.5 108v432q0 63 -45.5 108.5t-108.5 45.5h-381
q-64 0 -109.5 -45.5t-45.5 -108.5zM430 1317h166l90 -252h-94l-78 223l-80 -223h-94z" />
    <glyph glyph-name="otilde" unicode="&#xf5;" horiz-adv-x="1124" 
d="M78 487q0 121 38.5 221t105 166t156 102t191.5 36q213 0 345.5 -141t132.5 -367q0 -106 -28.5 -195t-76.5 -149.5t-112 -102.5t-134 -61t-143 -19q-204 0 -339.5 140t-135.5 370zM565 877q-76 0 -136 -33.5t-95.5 -89t-53.5 -122t-18 -138.5q0 -164 84 -272.5t215 -108.5
q129 0 215 109t86 276q0 66 -17 130.5t-51 121.5t-93.5 92t-135.5 35zM309 1161q-3 99 35 156t105 57q7 0 14 -0.5t15 -2.5t13 -3t14.5 -5t13 -5t14.5 -6.5t13.5 -6.5t16 -8t15.5 -8q8 -4 23 -12t23 -12t19.5 -7.5t20.5 -3.5q25 0 38.5 19t16.5 67h96q3 -206 -139 -206
q-47 0 -127 43q-6 3 -17 9t-15.5 8.5t-12.5 6.5t-12 5.5t-10 3.5t-11 2.5t-10 0.5q-47 0 -53 -92h-99z" />
    <glyph glyph-name="odieresis" unicode="&#xf6;" horiz-adv-x="1017" 
d="M309 1106q-9 25 2.5 49t36.5 33q27 9 51 -2t33 -37q9 -25 -2.5 -50t-36.5 -32q-27 -9 -51 2t-33 37zM586 1106q-9 25 2.5 49t36.5 33q27 9 51 -2t33 -37q9 -25 -2.5 -50t-36.5 -32q-27 -9 -51 2t-33 37zM299 961h420q101 0 173.5 -72.5t72.5 -173.5v-469
q0 -101 -72.5 -173.5t-173.5 -72.5h-420q-98 0 -169.5 68t-76.5 165v482q0 101 72.5 173.5t173.5 72.5zM854 264v432q0 63 -46 108.5t-110 45.5h-381q-63 0 -108 -45.5t-45 -108.5v-438q3 -62 47.5 -104.5t105.5 -42.5h381q64 0 110 45t46 108z" />
    <glyph glyph-name="divide" unicode="&#xf7;" horiz-adv-x="1085" 
d="M53 575v113h979v-113h-979zM602 930q9 -26 -2.5 -51.5t-36.5 -34.5q-26 -9 -50.5 3t-33.5 38q-9 27 2 51t37 33t50.5 -2.5t33.5 -36.5zM608 379q9 -25 -2.5 -50t-36.5 -34q-26 -9 -51.5 3t-34.5 38q-9 25 3 50t38 34t50.5 -3t33.5 -38z" />
    <glyph glyph-name="oslash" unicode="&#xf8;" horiz-adv-x="1349" 
d="M1059 885l84 73h153l-184 -159q16 -43 16 -84v-469q0 -101 -72 -173.5t-173 -72.5h-420q-102 0 -176 74l-84 -74h-152l182 160q-12 29 -16 73v482q0 101 72.5 173.5t173.5 72.5h420q103 0 176 -76zM330 244l639 563q-43 43 -107 43h-381q-63 0 -108 -45.5t-45 -108.5
v-438q0 -2 1 -7t1 -7zM1016 713l-639 -559q43 -43 104 -43h381q64 0 110 45t46 108v432q0 3 -1 8.5t-1 8.5z" />
    <glyph glyph-name="ugrave" unicode="&#xf9;" horiz-adv-x="1079" 
d="M53 963h111v-695q0 -63 45.5 -108t109.5 -45q72 0 146.5 28.5t128 67t101.5 84t71 73t31 40.5v555h112v-781q0 -28 20 -48.5t48 -20.5h49v-111h-68q-64 0 -110 44.5t-51 109.5l59 252h-14l-45 -78q-75 -142 -197 -236t-264 -94q-119 0 -201 67t-82 183v713zM346 1317h92
l90 -252h-92z" />
    <glyph glyph-name="uacute" unicode="&#xfa;" horiz-adv-x="1079" 
d="M53 963h111v-695q0 -63 45.5 -108t109.5 -45q72 0 146.5 28.5t128 67t101.5 84t71 73t31 40.5v555h112v-781q0 -28 20 -48.5t48 -20.5h49v-111h-68q-64 0 -110 44.5t-51 109.5l59 252h-14l-45 -78q-75 -142 -197 -236t-264 -94q-119 0 -201 67t-82 183v713zM524 1319h92
l-92 -254h-92z" />
    <glyph glyph-name="ucircumflex" unicode="&#xfb;" horiz-adv-x="1079" 
d="M336 0q-117 0 -200 67t-83 183v713h111v-695q0 -63 45.5 -108t109.5 -45q72 0 146.5 28.5t128 67t101.5 84t71 73t31 40.5v555h112v-781q0 -28 20 -48.5t48 -20.5h49v-111h-68q-64 0 -110 44.5t-51 109.5l59 252h-14l-45 -78q-75 -142 -197 -236t-264 -94zM410 1317h165
l91 -252h-95l-77 223l-80 -223h-95z" />
    <glyph glyph-name="udieresis" unicode="&#xfc;" horiz-adv-x="1079" 
d="M289 1108q-9 27 2 51t37 33t50.5 -2.5t33.5 -36.5q9 -26 -2.5 -50.5t-36.5 -33.5q-26 -9 -50.5 2.5t-33.5 36.5zM565 1108q-9 26 2.5 50.5t36.5 33.5q26 9 50.5 -2.5t33.5 -36.5q9 -26 -2.5 -50.5t-36.5 -33.5q-26 -9 -50.5 2.5t-33.5 36.5zM977 113h49v-111h-68
q-64 0 -110 44.5t-51 109.5l59 252h-14l-45 -78q-40 -77 -96 -141.5t-128.5 -113.5t-154 -66t-172.5 1q-84 19 -138.5 86t-54.5 154v713h111v-695q0 -63 45.5 -108t109.5 -45q72 0 146.5 28.5t128 67t101.5 84t71 73t31 40.5v555h112v-748v-33q0 -29 20 -49t48 -20z" />
    <glyph glyph-name="yacute" unicode="&#xfd;" horiz-adv-x="1075" 
d="M743 1319l-92 -254h-94l92 254h94zM909 961h113v-1291q0 -101 -72.5 -173t-175.5 -72h-358q-101 0 -173.5 72t-72.5 173v58h111v-39q0 -63 45 -108.5t108 -45.5h322q64 0 108.5 45.5t44.5 108.5v456l60 254h-15l-45 -80q-43 -78 -98.5 -141.5t-126.5 -111t-150.5 -63
t-171.5 2.5q-84 19 -138 86t-54 154v534q0 29 -20.5 49.5t-49.5 20.5h-47v111h68q66 0 113 -48t47 -114v-545q5 -60 49 -101.5t104 -41.5q70 0 142 26.5t124.5 62.5t101 80t72 71.5t35.5 45.5v564z" />
    <glyph glyph-name="thorn" unicode="&#xfe;" horiz-adv-x="1165" 
d="M328 -406h-178v1776h178v-536h4q111 178 338 178q179 2 299.5 -138t120.5 -366q0 -131 -39 -235t-103.5 -167t-144 -96t-166.5 -33q-98 0 -178 41t-127 115h-4v-539zM328 573v-182q0 -53 18 -90q31 -84 102.5 -133t161.5 -49q134 0 215.5 104.5t81.5 280.5q0 154 -79 259
t-214 105q-116 0 -201 -89t-85 -206z" />
    <glyph glyph-name="ydieresis" unicode="&#xff;" horiz-adv-x="1075" 
d="M422 1108q-9 26 3 50.5t38 33.5q25 9 49 -2.5t33 -36.5q9 -27 -2 -51t-37 -33q-25 -9 -50 2.5t-34 36.5zM700 1108q-8 25 3.5 49t37.5 33q25 9 49 -2t33 -37q9 -25 -2 -49t-37 -33q-25 -9 -50 2t-34 37zM909 961h113v-1291q0 -101 -72.5 -173t-175.5 -72h-358
q-101 0 -173.5 72t-72.5 173v58h111v-39q0 -63 45 -108.5t108 -45.5h322q64 0 108.5 45.5t44.5 108.5v456l60 254h-15l-45 -80q-43 -78 -98.5 -141.5t-126.5 -111t-150.5 -63t-171.5 2.5q-84 19 -138 86t-54 154v534q0 29 -20.5 49.5t-49.5 20.5h-47v111h68q66 0 113 -48
t47 -114v-545q5 -60 49 -101.5t104 -41.5q70 0 142 26.5t124.5 62.5t101 80t72 71.5t35.5 45.5v564z" />
    <glyph glyph-name="Amacron" unicode="&#x100;" horiz-adv-x="1253" 
d="M51 0l471 1380h213l471 -1380h-190l-148 434h-489l-143 -434h-185zM416 573h418l-138 398q-29 85 -71 252h-4q-43 -171 -70 -250zM379 1501v113h491v-113h-491z" />
    <glyph glyph-name="amacron" unicode="&#x101;" horiz-adv-x="987" 
d="M375 -23q-96 0 -166.5 42t-103.5 105.5t-33 137.5q0 180 154 275.5t442 93.5v20q0 29 -3.5 55t-17.5 59.5t-37.5 57.5t-66.5 40.5t-101 15.5q-150 0 -260 -74l-41 121q63 39 149.5 62.5t178.5 23.5q88 0 155.5 -23.5t108.5 -61.5t67 -92t36 -109t10 -118v-370
q0 -143 14 -238h-162l-14 125h-6q-45 -64 -124 -106t-179 -42zM672 506h-29q-391 0 -391 -223q0 -85 47.5 -128.5t120.5 -43.5q101 0 176.5 62.5t75.5 160.5v172zM725 1200h-461v117h461v-117z" />
    <glyph glyph-name="Abreve" unicode="&#x102;" horiz-adv-x="1253" 
d="M51 0l471 1380h213l471 -1380h-190l-148 434h-489l-143 -434h-185zM416 573h418l-138 398q-29 85 -71 252h-4q-43 -171 -70 -250zM623 1456q-124 0 -186.5 59.5t-65.5 157.5h106q9 -42 44.5 -71t103.5 -29q130 0 149 100h105q-3 -97 -66.5 -157t-189.5 -60z" />
    <glyph glyph-name="abreve" unicode="&#x103;" horiz-adv-x="987" 
d="M72 262q0 180 154 275.5t442 93.5v20q0 29 -3.5 55t-17.5 59.5t-37.5 57.5t-66.5 40.5t-101 15.5q-150 0 -260 -74l-41 121q63 39 149.5 62.5t178.5 23.5q88 0 155.5 -23.5t108.5 -61.5t67 -92t36 -109t10 -118v-370q0 -143 14 -238h-162l-14 125h-6q-45 -64 -124 -106
t-179 -42q-96 0 -166.5 42t-103.5 105.5t-33 137.5zM672 506h-29q-391 0 -391 -223q0 -85 47.5 -128.5t120.5 -43.5q101 0 176.5 62.5t75.5 160.5v172zM494 1141q-126 0 -190 74.5t-64 181.5h106q9 -62 48 -102t98 -40q68 0 106 41.5t43 100.5h107q0 -116 -69.5 -186
t-184.5 -70z" />
    <glyph glyph-name="Aogonek" unicode="&#x104;" horiz-adv-x="1253" 
d="M51 0l471 1380h213l473 -1380l-75 -4q-109 -109 -109 -191q0 -50 29 -78t75 -28q51 0 93 20l28 -92q-30 -23 -77 -36t-87 -13q-88 0 -140 46t-52 132q0 110 121 252l-146 426h-489l-141 -434h-187zM551 973l-135 -400h418l-138 398q-29 85 -71 252h-4q-43 -171 -70 -250z
" />
    <glyph glyph-name="aogonek" unicode="&#x105;" horiz-adv-x="987" 
d="M375 -23q-96 0 -166.5 42t-103.5 105.5t-33 137.5q0 180 154 275.5t442 93.5v20q0 29 -3.5 55t-17.5 59.5t-37.5 57.5t-66.5 40.5t-101 15.5q-150 0 -260 -74l-41 121q63 39 149.5 62.5t178.5 23.5q88 0 155.5 -23.5t108.5 -61.5t67 -92t36 -109t10 -118v-370
q0 -150 16 -238h-51q-30 -40 -55 -94.5t-25 -102.5q0 -51 26.5 -76.5t71.5 -25.5q50 0 95 20l28 -94q-69 -49 -170 -49q-81 0 -131.5 46t-50.5 128q0 111 98 254l-14 119h-6q-45 -64 -124 -106t-179 -42zM672 506h-29q-391 0 -391 -223q0 -85 47.5 -128.5t120.5 -43.5
q99 0 175.5 63.5t76.5 159.5v172z" />
    <glyph glyph-name="Cacute" unicode="&#x106;" horiz-adv-x="1187" 
d="M74 678q0 161 53 296t147 229.5t228 147t293 52.5q210 0 327 -62l-45 -145q-114 57 -276 57q-246 0 -392.5 -150.5t-146.5 -418.5q0 -257 140 -406t389 -149q175 0 292 57l35 -143q-52 -27 -149 -46.5t-215 -19.5q-147 0 -270.5 46t-215 133t-143 221t-51.5 301z
M774 1458h-145l190 240h217z" />
    <glyph glyph-name="cacute" unicode="&#x107;" horiz-adv-x="917" 
d="M78 483q0 232 146 380.5t386 148.5q75 0 142.5 -16t107.5 -38l-41 -137q-88 47 -209 47q-164 0 -257 -106.5t-93 -267.5q0 -169 96.5 -270t247.5 -101q117 0 221 47l31 -135q-119 -58 -285 -58q-224 0 -358.5 139t-134.5 367zM565 1126h-127l180 293h197z" />
    <glyph glyph-name="Ccircumflex" unicode="&#x108;" horiz-adv-x="1165" 
d="M53 227v1073q0 99 71 167.5t173 68.5h571q103 0 173.5 -68.5t70.5 -169.5v-65h-111v65q0 55 -38.5 91t-88.5 36h-577q-58 0 -95.5 -34.5t-37.5 -90.5l-2 -1042q1 -61 46 -104t107 -43h555q50 0 90.5 36t40.5 95v61h111v-61q0 -105 -71 -173.5t-173 -68.5h-571
q-98 0 -171 66.5t-73 160.5zM506 1638h-94l90 252h164l90 -252h-92l-80 220z" />
    <glyph glyph-name="ccircumflex" unicode="&#x109;" horiz-adv-x="1017" 
d="M53 231v484q0 101 72.5 173.5t173.5 72.5h418q103 0 175.5 -68.5t72.5 -175.5v-60h-111v41q0 63 -46.5 107.5t-109.5 44.5h-379q-64 0 -109.5 -45.5t-45.5 -108.5v-438q3 -62 47.5 -104.5t107.5 -42.5h379q63 0 109.5 45t46.5 108v39h111v-57q0 -101 -73.5 -173.5
t-174.5 -72.5h-420q-98 0 -168.5 67t-75.5 164zM428 1065h-94l90 252h166l90 -252h-94l-78 223z" />
    <glyph glyph-name="Cdotaccent" unicode="&#x10a;" horiz-adv-x="1187" 
d="M754 -23q-147 0 -270.5 46t-215 133t-143 221t-51.5 301q0 161 53 296t147 229.5t228 147t293 52.5q210 0 327 -62l-45 -145q-114 57 -276 57q-246 0 -392.5 -150.5t-146.5 -418.5q0 -257 140 -406t389 -149q175 0 292 57l35 -143q-52 -27 -149 -46.5t-215 -19.5z
M713 1473q-42 0 -71.5 31t-29.5 73q0 40 30.5 71t72.5 31q41 0 69.5 -31t28.5 -71q0 -42 -29 -73t-71 -31z" />
    <glyph glyph-name="cdotaccent" unicode="&#x10b;" horiz-adv-x="917" 
d="M571 -23q-224 0 -358.5 139t-134.5 367q0 232 146 380.5t386 148.5q75 0 142.5 -16t107.5 -38l-41 -137q-88 47 -209 47q-164 0 -257 -106.5t-93 -267.5q0 -169 96.5 -270t247.5 -101q117 0 221 47l31 -135q-119 -58 -285 -58zM541 1167q-43 0 -73 31.5t-30 73.5
q0 44 31 75t74 31t71.5 -31t28.5 -75q0 -43 -29 -74t-73 -31z" />
    <glyph glyph-name="Ccaron" unicode="&#x10c;" horiz-adv-x="1165" 
d="M53 227v1073q0 99 71 167.5t173 68.5h571q103 0 173.5 -68.5t70.5 -169.5v-65h-111v65q0 55 -38.5 91t-88.5 36h-577q-58 0 -95.5 -34.5t-37.5 -90.5l-2 -1042q1 -61 46 -104t107 -43h555q50 0 90.5 36t40.5 95v61h111v-61q0 -105 -71 -173.5t-173 -68.5h-571
q-98 0 -171 66.5t-73 160.5zM418 1890h92l80 -223l80 223h92l-90 -252h-164z" />
    <glyph glyph-name="ccaron" unicode="&#x10d;" horiz-adv-x="1017" 
d="M53 231v484q0 101 72.5 173.5t173.5 72.5h418q103 0 175.5 -68.5t72.5 -175.5v-60h-111v41q0 63 -46.5 107.5t-109.5 44.5h-379q-64 0 -109.5 -45.5t-45.5 -108.5v-438q3 -62 47.5 -104.5t107.5 -42.5h379q63 0 109.5 45t46.5 108v39h111v-57q0 -101 -73.5 -173.5
t-174.5 -72.5h-420q-98 0 -168.5 67t-75.5 164zM336 1317h94l80 -223l80 223h94l-90 -252h-168z" />
    <glyph glyph-name="Dcaron" unicode="&#x10e;" horiz-adv-x="1282" 
d="M1110 502v530q0 105 -39 193t-116 143t-177 55h-497v-1067q224 -201 391 -243q18 -4 57 -4q18 -1 37 0.5t29 3.5l10 2q74 17 127 43.5t94.5 71t62.5 112.5t21 160zM1229 1032v-528q0 -104 -22 -185t-58.5 -134t-92.5 -91t-115 -58.5t-136 -33.5q-16 -2 -49 -2
q-137 0 -246.5 65.5t-228.5 190.5l-45 80h-15l53 -223q-18 -51 -59 -82t-94 -31h-68v111h49q28 0 48 20t20 49v1356h608q137 0 240.5 -67.5t157 -181.5t53.5 -255zM641 1667l80 223h92l-90 -252h-164l-90 252h92z" />
    <glyph glyph-name="dcaron" unicode="&#x10f;" horiz-adv-x="1232" 
d="M1028 1460h-22v78h20q62 0 108 -45.5t46 -106.5q0 -73 -45.5 -127.5t-108.5 -54.5h-20v33q29 -1 50 15.5t30.5 41t13.5 45t4 35.5q0 37 -22.5 61.5t-53.5 24.5zM973 115h49v-113h-68q-63 0 -108.5 43.5t-50.5 106.5l59 249h-14l-45 -77q-40 -73 -98 -136t-128.5 -111
t-155 -67t-167.5 0q-84 19 -138.5 86t-54.5 154v450q0 101 81.5 182t182.5 81h342q77 0 136 -41v616h110v-1356q0 -28 20 -47.5t48 -19.5zM795 401v306q-5 60 -49.5 102.5t-104.5 42.5h-305q-63 0 -117.5 -53.5t-54.5 -116.5v-414q0 -64 45 -108.5t108 -44.5h17
q70 0 141.5 27.5t120.5 61.5t97.5 81.5t67 70.5t34.5 45z" />
    <glyph glyph-name="Dcroat" unicode="&#x110;" horiz-adv-x="1374" 
d="M-2 629v143h168v594q188 31 379 31q135 0 249 -24t208 -76.5t159 -131t101 -190.5t36 -252q0 -338 -198 -539q-96 -97 -253 -147.5t-358 -50.5q-165 0 -323 14v629h-168zM344 772h369v-143h-369v-492q60 -8 178 -8q286 0 437 152.5t151 439.5q2 254 -139.5 394
t-417.5 140q-124 0 -209 -18v-465z" />
    <glyph glyph-name="dcroat" unicode="&#x111;" horiz-adv-x="1155" 
d="M78 481q-1 240 128 385.5t316 145.5q108 0 185 -42.5t114 -107.5h4v268h-403v113h403v211h179v-211h159v-113h-159v-874q0 -120 8 -256h-160l-8 172h-6q-42 -87 -129.5 -141t-204.5 -54q-183 0 -304.5 140.5t-121.5 363.5zM260 489q0 -158 77 -262t216 -104q120 0 196 86
t76 207v172q0 117 -75.5 199.5t-192.5 82.5q-137 0 -217 -107t-80 -274z" />
    <glyph glyph-name="Emacron" unicode="&#x112;" horiz-adv-x="1007" 
d="M932 0h-778v1380h747v-149h-567v-436h534v-148h-534v-497h598v-150zM285 1614h491v-113h-491v113z" />
    <glyph glyph-name="emacron" unicode="&#x113;" horiz-adv-x="1026" 
d="M565 -23q-226 0 -356.5 137.5t-130.5 364.5q0 150 55 270.5t162 191.5t248 71q93 0 167 -31.5t118 -79.5t73 -112t40 -123.5t11 -118.5q0 -54 -6 -84h-696q3 -173 98 -258.5t242 -85.5q158 0 274 51l33 -129q-139 -64 -332 -64zM528 883q-66 0 -118.5 -27.5t-84 -72
t-49.5 -93t-24 -98.5h526q1 37 -5.5 74t-23.5 77t-44 70.5t-73 50t-104 19.5zM289 1200v117h461v-117h-461z" />
    <glyph glyph-name="Ebreve" unicode="&#x114;" horiz-adv-x="1165" 
d="M672 1782v22h69v-20q0 -62 -41 -104t-102 -42h-33q-61 0 -101 42t-40 104v20h72v-22q0 -37 23 -56.5t63 -19.5h2q40 0 64 19.5t24 56.5zM88 111h1024v-111h-1059v1536h1059v-111h-948v-430l-76 -22v-12h1024v-111h-948v-707l-76 -20v-12z" />
    <glyph glyph-name="ebreve" unicode="&#x115;" horiz-adv-x="958" 
d="M563 1208v23h70v-21q0 -62 -41.5 -103.5t-102.5 -41.5h-32q-61 0 -101.5 41.5t-40.5 103.5v21h72v-23q0 -37 23 -56t63 -19h2q40 0 64 19t24 56zM659 958q101 0 173.5 -72t72.5 -173v-82q0 -246 -309 -246q-65 1 -131 31t-113.5 69.5t-90.5 88.5t-64 80.5t-33 52.5
l-41 77h-19l60 -249v-273q0 -63 45 -108t108 -45h324q63 0 108.5 45t45.5 108v37h110v-55q0 -101 -72.5 -173.5t-173.5 -72.5h-360q-101 0 -173.5 72.5t-72.5 173.5v452q0 55 17.5 101t45 75t62 49t66.5 28.5t61 8.5h354zM795 649v53q-3 57 -43 98.5t-97 47.5h-432
q-23 -5 -39.5 -22t-19.5 -42q14 -20 34.5 -45.5t67.5 -71.5t97 -81.5t121 -62.5t141 -27h16q63 0 108.5 45t45.5 108z" />
    <glyph glyph-name="Edotaccent" unicode="&#x116;" horiz-adv-x="1007" 
d="M154 0v1380h747v-149h-567v-436h534v-148h-534v-497h598v-150h-778zM412 1581q0 40 30 71t72 31q41 0 69.5 -31t28.5 -71q0 -42 -29 -73t-71 -31t-71 31t-29 73z" />
    <glyph glyph-name="edotaccent" unicode="&#x117;" horiz-adv-x="1026" 
d="M565 -23q-226 0 -356.5 137.5t-130.5 364.5q0 150 55 270.5t162 191.5t248 71q93 0 167 -31.5t118 -79.5t73 -112t40 -123.5t11 -118.5q0 -54 -6 -84h-696q3 -173 98 -258.5t242 -85.5q158 0 274 51l33 -129q-139 -64 -332 -64zM528 883q-66 0 -118.5 -27.5t-84 -72
t-49.5 -93t-24 -98.5h526q1 37 -5.5 74t-23.5 77t-44 70.5t-73 50t-104 19.5zM418 1272q0 44 30.5 75t73.5 31t72 -31t29 -75q0 -43 -29 -74t-74 -31q-43 0 -72.5 31.5t-29.5 73.5z" />
    <glyph glyph-name="Eogonek" unicode="&#x118;" horiz-adv-x="1007" 
d="M154 1380h747v-149h-567v-436h534v-148h-534v-497h598v-150q-5 0 -16 -1t-17 -1q-69 -44 -118.5 -103t-49.5 -112q0 -39 25.5 -60.5t66.5 -21.5q49 0 90 16l29 -96q-70 -43 -166 -43q-87 0 -137.5 43.5t-50.5 122.5q0 76 50 144t116 112h-600v1380z" />
    <glyph glyph-name="eogonek" unicode="&#x119;" horiz-adv-x="1026" 
d="M561 -23q-223 1 -353 139t-130 363q0 150 55 270.5t162 191.5t248 71q93 0 167 -31.5t118 -79.5t73 -112t40 -123.5t11 -118.5q0 -57 -6 -84h-696q3 -173 98 -258.5t242 -85.5q154 0 274 51l31 -129q-7 -3 -92 -35q-68 -25 -131.5 -92t-63.5 -127q0 -42 24.5 -64
t59.5 -22q55 0 96 20l29 -92q-67 -49 -166 -49q-84 0 -133 42t-49 118q0 69 44.5 133.5t102.5 103.5v3q-9 0 -27 -1.5t-28 -1.5zM530 883q-66 0 -118.5 -27.5t-84 -72t-49.5 -93t-24 -98.5h524q1 37 -5.5 74t-23.5 77t-44 70.5t-72 50t-103 19.5z" />
    <glyph glyph-name="Ecaron" unicode="&#x11a;" horiz-adv-x="1165" 
d="M1112 0h-1059v1536h1059v-111h-948v-430l-74 -22v-10h1022v-113h-948v-707l-74 -20v-10h1022v-113zM412 1890h92l80 -223l80 223h92l-90 -252h-164z" />
    <glyph glyph-name="ecaron" unicode="&#x11b;" horiz-adv-x="958" 
d="M659 961q101 0 173.5 -72.5t72.5 -173.5v-82q0 -246 -309 -246q-65 1 -131 31t-113.5 69.5t-90.5 88.5t-64 80.5t-33 52.5l-41 77h-19l60 -249v-273q0 -63 45 -108t108 -45h324q63 0 108.5 45t45.5 108v37h110v-55q0 -101 -72.5 -173.5t-173.5 -72.5h-360
q-101 0 -173.5 72.5t-72.5 173.5v452q0 68 26 121.5t66.5 83t81.5 44t78 14.5h354zM795 651v54q-3 57 -43 98t-97 47h-432q-23 -5 -39.5 -22t-19.5 -42q16 -22 35 -45t67.5 -71t97.5 -82.5t120 -62t141 -27.5h16q63 0 108.5 45t45.5 108zM563 1317l-80 -223l-80 223h-94
l90 -252h168l90 252h-94z" />
    <glyph glyph-name="Gcircumflex" unicode="&#x11c;" horiz-adv-x="1323" 
d="M782 -14q-328 0 -518 184t-190 512q0 154 52 285t147 226t236 148.5t312 53.5q110 0 202 -19.5t144 -44.5l-45 -145q-125 59 -305 59q-254 0 -404.5 -148.5t-150.5 -406.5q0 -260 144 -408.5t389 -148.5q161 0 237 37v412h-278v143h454v-664q-194 -75 -426 -75zM604 1460
h-145l209 234h137l215 -234h-152l-129 142h-4z" />
    <glyph glyph-name="gcircumflex" unicode="&#x11d;" horiz-adv-x="1144" 
d="M500 4q-183 0 -302.5 138t-119.5 345q0 122 37.5 223t100.5 166t143 100.5t167 35.5q118 0 194 -49t116 -121h4l6 149h160q-9 -105 -9 -270v-576q0 -138 -25.5 -240t-83 -178.5t-156.5 -115.5t-238 -39q-92 0 -182 21.5t-148 60.5l45 139q123 -80 291 -80q147 0 233 84
t86 264v109h-4q-42 -74 -123.5 -120t-191.5 -46zM555 872q-131 0 -213 -102t-82 -272q0 -154 77 -255.5t216 -101.5q116 0 190 82t74 199v178q0 111 -75.5 191.5t-186.5 80.5zM315 1133l193 292h125l196 -292h-137l-119 192h-4l-118 -192h-136z" />
    <glyph glyph-name="Gbreve" unicode="&#x11e;" horiz-adv-x="1323" 
d="M74 682q0 154 52 285t147 226t236 148.5t312 53.5q110 0 202 -19.5t144 -44.5l-45 -145q-125 59 -305 59q-254 0 -404.5 -148.5t-150.5 -406.5q0 -260 144 -408.5t389 -148.5q161 0 237 37v412h-278v143h454v-664q-194 -75 -426 -75q-328 0 -518 184t-190 512zM723 1477
q-123 0 -185 59.5t-65 157.5h107q9 -42 44 -71.5t103 -29.5q128 0 147 101h105q-3 -97 -66.5 -157t-189.5 -60z" />
    <glyph glyph-name="gbreve" unicode="&#x11f;" horiz-adv-x="1144" 
d="M78 487q0 122 37.5 223t100.5 166t143 100.5t167 35.5q118 0 194 -49t116 -121h4l6 149h160q-9 -105 -9 -270v-576q0 -138 -25.5 -240t-83 -178.5t-156.5 -115.5t-238 -39q-92 0 -182 21.5t-148 60.5l45 139q123 -80 291 -80q147 0 233 84t86 264v109h-4
q-42 -74 -123.5 -120t-191.5 -46q-183 0 -302.5 138t-119.5 345zM260 498q0 -154 77 -255.5t216 -101.5q116 0 190 82t74 199v178q0 111 -75.5 191.5t-186.5 80.5q-131 0 -213 -102t-82 -272zM557 1141q-126 0 -190 74.5t-64 181.5h107q9 -63 47.5 -102.5t97.5 -39.5
q69 0 107 41.5t43 100.5h106q0 -116 -69.5 -186t-184.5 -70z" />
    <glyph glyph-name="Gdotaccent" unicode="&#x120;" horiz-adv-x="1323" 
d="M74 682q0 154 52 285t147 226t236 148.5t312 53.5q110 0 202 -19.5t144 -44.5l-45 -145q-125 59 -305 59q-254 0 -404.5 -148.5t-150.5 -406.5q0 -260 144 -408.5t389 -148.5q161 0 237 37v412h-278v143h454v-664q-194 -75 -426 -75q-328 0 -518 184t-190 512zM639 1577
q0 40 30 71t72 31q41 0 70 -31t29 -71q0 -42 -29.5 -73t-71.5 -31t-71 31t-29 73z" />
    <glyph glyph-name="gdotaccent" unicode="&#x121;" horiz-adv-x="1144" 
d="M500 4q-183 0 -302.5 138t-119.5 345q0 122 37.5 223t100.5 166t143 100.5t167 35.5q118 0 194 -49t116 -121h4l6 149h160q-9 -105 -9 -270v-576q0 -138 -25.5 -240t-83 -178.5t-156.5 -115.5t-238 -39q-92 0 -182 21.5t-148 60.5l45 139q123 -80 291 -80q147 0 233 84
t86 264v109h-4q-42 -74 -123.5 -120t-191.5 -46zM260 498q0 -154 77 -255.5t216 -101.5q116 0 190 82t74 199v178q0 111 -75.5 191.5t-186.5 80.5q-131 0 -213 -102t-82 -272zM467 1280q0 43 30.5 73.5t73.5 30.5q42 0 71.5 -30.5t29.5 -73.5q0 -44 -29 -75t-74 -31
q-44 0 -73 31t-29 75z" />
    <glyph glyph-name="uni0122" unicode="&#x122;" horiz-adv-x="1323" 
d="M782 -14q-328 0 -518 184t-190 512q0 154 52 285t147 226t236 148.5t312 53.5q110 0 202 -19.5t144 -44.5l-45 -145q-125 59 -305 59q-254 0 -404.5 -148.5t-150.5 -406.5q0 -260 144 -408.5t389 -148.5q161 0 237 37v412h-278v143h454v-664q-194 -75 -426 -75zM575 -371
q66 10 110 43.5t44 89.5q0 66 -70 125l134 29q34 -22 57.5 -63t23.5 -89q0 -54 -23 -96t-62 -67t-84 -39t-95 -17z" />
    <glyph glyph-name="uni0123" unicode="&#x123;" horiz-adv-x="1144" 
d="M500 4q-183 0 -302.5 138t-119.5 345q0 122 37.5 223t100.5 166t143 100.5t167 35.5q118 0 194 -49t116 -121h4l6 149h160q-9 -105 -9 -270v-576q0 -138 -25.5 -240t-83 -178.5t-156.5 -115.5t-238 -39q-92 0 -182 21.5t-148 60.5l45 139q123 -80 291 -80q147 0 233 84
t86 264v109h-4q-42 -74 -123.5 -120t-191.5 -46zM555 872q-131 0 -213 -102t-82 -272q0 -154 77 -255.5t216 -101.5q116 0 190 82t74 199v178q0 111 -75.5 191.5t-186.5 80.5zM508 1096q-33 20 -56.5 59t-23.5 86q0 69 41 117t98 69t127 25l33 -76q-71 -10 -115.5 -42.5
t-44.5 -90.5q0 -67 72 -121z" />
    <glyph glyph-name="Hcircumflex" unicode="&#x124;" horiz-adv-x="1335" 
d="M154 0v1380h180v-577h667v577h181v-1380h-181v647h-667v-647h-180zM389 1454l209 234h137l215 -234h-151l-129 141h-4l-131 -141h-146z" />
    <glyph glyph-name="hcircumflex" unicode="&#x125;" horiz-adv-x="1136" 
d="M330 0h-180v1454h180v-620h4q45 82 130.5 130t182.5 48q44 0 87.5 -11t91.5 -40.5t84 -74.5t59.5 -122t23.5 -174v-590h-180v569q0 131 -54.5 212t-174.5 81q-106 0 -180 -79t-74 -185v-598zM-33 1493l209 233h137l215 -233h-151l-129 141h-4l-131 -141h-146z" />
    <glyph glyph-name="Hbar" unicode="&#x126;" horiz-adv-x="1345" 
d="M43 1100h117v280h180v-280h666v280h180v-280h117v-119h-117v-981h-180v616h-666v-616h-180v981h-117v119zM1006 981h-666v-209h666v209z" />
    <glyph glyph-name="hbar" unicode="&#x127;" horiz-adv-x="1136" 
d="M150 1130h-158v113h158v211h180v-211h397v-113h-397v-296h4q45 82 130.5 130t182.5 48q44 0 87.5 -11t91.5 -40.5t84 -74.5t59.5 -122t23.5 -174v-590h-180v569q0 131 -54.5 212t-174.5 81q-106 0 -180 -79t-74 -185v-598h-180v1130z" />
    <glyph glyph-name="Itilde" unicode="&#x128;" horiz-adv-x="489" 
d="M154 1380h180v-1380h-180v1380zM-8 1464q-2 95 36 152t103 57q50 0 121 -41q68 -37 98 -37q25 0 38.5 16.5t17.5 63.5h94q3 -198 -138 -198q-48 0 -124 39q-7 3 -21.5 11t-21 11.5t-17.5 8t-19.5 6t-17.5 1.5q-43 0 -53 -90h-96z" />
    <glyph glyph-name="itilde" unicode="&#x129;" horiz-adv-x="479" 
d="M150 991h180v-991h-180v991zM-12 1161q-3 99 34.5 156t104.5 57q21 0 44.5 -7.5t36.5 -13.5t46 -24q8 -4 23.5 -12t23.5 -12t19.5 -7.5t21.5 -3.5q25 0 38.5 19t16.5 67h97q3 -206 -140 -206q-50 0 -127 45q-61 34 -88 34q-47 0 -53 -92h-98z" />
    <glyph glyph-name="Imacron" unicode="&#x12a;" horiz-adv-x="489" 
d="M154 1380h180v-1380h-180v1380zM0 1614h492v-113h-492v113z" />
    <glyph glyph-name="imacron" unicode="&#x12b;" horiz-adv-x="479" 
d="M330 0h-180v991h180v-991zM10 1317h461v-117h-461v117z" />
    <glyph glyph-name="Ibreve" unicode="&#x12c;" horiz-adv-x="423" 
d="M301 1784v20h70v-20q0 -62 -41.5 -104t-102.5 -42h-32q-61 0 -101.5 42t-40.5 104v20h72v-20q0 -37 23.5 -57.5t62.5 -20.5h2q39 0 63.5 20.5t24.5 57.5zM156 1536h112v-1536h-112v1536z" />
    <glyph glyph-name="ibreve" unicode="&#x12d;" horiz-adv-x="479" 
d="M150 0v991h180v-991h-180zM-8 1397h106q9 -62 48 -102t98 -40q68 0 106 41.5t43 100.5h107q0 -116 -69.5 -186t-184.5 -70q-126 0 -190 74.5t-64 181.5z" />
    <glyph glyph-name="Iogonek" unicode="&#x12e;" horiz-adv-x="489" 
d="M57 -252q0 100 97 252v1380h180v-1380h-62q-84 -117 -84 -201q0 -51 29.5 -78.5t75.5 -27.5q51 0 92 18l29 -94q-31 -22 -78 -34.5t-88 -12.5q-87 0 -139 46t-52 132z" />
    <glyph glyph-name="iogonek" unicode="&#x12f;" horiz-adv-x="479" 
d="M51 -252q0 105 99 252v991h180v-991h-64q-84 -117 -84 -201q0 -51 29.5 -78.5t75.5 -27.5q51 0 92 18l29 -94q-31 -22 -78 -34.5t-88 -12.5q-87 0 -139 46t-52 132zM125 1282q0 48 32.5 81.5t82.5 33.5t81 -33.5t31 -81.5t-31 -80.5t-85 -32.5q-48 0 -79.5 33t-31.5 80z
" />
    <glyph glyph-name="Idotaccent" unicode="&#x130;" horiz-adv-x="237" 
d="M57 1681q-9 26 2.5 50.5t36.5 33.5q26 9 50.5 -2.5t33.5 -36.5q9 -26 -2.5 -50.5t-36.5 -33.5q-26 -9 -50.5 2.5t-33.5 36.5zM61 1536h113v-1536h-113v1536z" />
    <glyph glyph-name="dotlessi" unicode="&#x131;" horiz-adv-x="479" 
d="M330 0h-180v991h180v-991z" />
    <glyph glyph-name="IJ" unicode="&#x132;" horiz-adv-x="1247" 
d="M690 -23q-110 0 -192 33l26 146q71 -27 152 -27q63 0 107.5 16t78 54t50 106t16.5 168v907h180v-923q0 -134 -31 -229.5t-89.5 -149t-131 -77.5t-166.5 -24zM154 1380h180v-1380h-180v1380z" />
    <glyph glyph-name="ij" unicode="&#x133;" horiz-adv-x="976" 
d="M403 -432l-18 141q136 10 197 76q39 42 54 120t15 253v833h180v-903q0 -150 -26.5 -246t-91.5 -161q-56 -56 -142 -84.5t-168 -28.5zM150 991h180v-991h-180v991zM127 1270q0 47 31.5 79.5t81.5 32.5q49 0 79.5 -32t30.5 -80q0 -47 -31 -79t-83 -32q-48 0 -78.5 32
t-30.5 79zM629 1270q0 47 31 79.5t81 32.5t80.5 -32.5t30.5 -79.5t-31 -79t-84 -32q-48 0 -78 32.5t-30 78.5z" />
    <glyph glyph-name="Jcircumflex" unicode="&#x134;" horiz-adv-x="757" 
d="M199 -23q-112 0 -191 33l25 146q71 -27 151 -27q63 0 107.5 16t78 53.5t50 105t16.5 167.5v909h180v-923q0 -134 -31 -229.5t-89 -149t-130.5 -77.5t-166.5 -24zM385 1454h-145l209 234h137l215 -234h-152l-129 141h-4z" />
    <glyph glyph-name="jcircumflex" unicode="&#x135;" horiz-adv-x="497" 
d="M-74 -432l-20 141q136 10 196 78q38 43 54 121t16 250v833h180v-903q0 -150 -26.5 -245.5t-92.5 -161.5q-56 -56 -141.5 -84.5t-165.5 -28.5zM127 1112h-135l192 293h125l197 -293h-137l-119 193h-4z" />
    <glyph glyph-name="uni0136" unicode="&#x136;" horiz-adv-x="1110" 
d="M156 1380h178v-665h6q67 96 109 147l421 518h222l-500 -585l538 -795h-210l-453 678l-133 -152v-526h-178v1380zM440 -451l-34 84q66 10 109.5 44t43.5 90q0 65 -70 124l134 29q34 -22 58 -62.5t24 -88.5q0 -54 -23 -96t-62 -67.5t-84.5 -39.5t-95.5 -17z" />
    <glyph glyph-name="uni0137" unicode="&#x137;" horiz-adv-x="960" 
d="M150 0v1454h178v-917h4q42 59 86 112l293 342h215l-381 -407l436 -584h-221l-340 475l-92 -102v-373h-178zM362 -455l-34 84q66 10 109.5 43.5t43.5 89.5q0 35 -19.5 68.5t-49.5 56.5l133 29q34 -22 58 -63t24 -89q0 -71 -41 -121t-98 -72t-126 -26z" />
    <glyph glyph-name="kgreenlandic" unicode="&#x138;" horiz-adv-x="960" 
d="M150 0v991h178v-454h4q42 59 86 112l293 342h215l-381 -407l436 -584h-221l-340 475l-92 -102v-373h-178z" />
    <glyph glyph-name="Lacute" unicode="&#x139;" horiz-adv-x="1273" 
d="M88 111h1133v-111h-1168v1536h111v-1386l-76 -25v-14zM154 1638l88 252h-90l-93 -252h95z" />
    <glyph glyph-name="lacute" unicode="&#x13a;" horiz-adv-x="333" 
d="M248 1884l-88 -246h-94l88 246h94zM233 111h48v-111h-97q-61 0 -96 41.5t-35 95.5v1399h111v-1356q0 -29 20 -49t49 -20z" />
    <glyph glyph-name="uni013B" unicode="&#x13b;" horiz-adv-x="966" 
d="M154 0v1380h180v-1230h590v-150h-770zM383 -455l-35 84q66 10 110 43.5t44 89.5q0 66 -70 125l133 29q34 -22 58 -63t24 -89q0 -54 -23 -96t-62 -67t-84 -39t-95 -17z" />
    <glyph glyph-name="uni013C" unicode="&#x13c;" horiz-adv-x="483" 
d="M330 0h-180v1454h180v-1454zM106 -455l-34 84q66 10 109.5 43.5t43.5 89.5q0 35 -19.5 68.5t-49.5 56.5l133 29q34 -22 58 -63t24 -89q0 -71 -41 -121t-98 -72t-126 -26z" />
    <glyph glyph-name="Lcaron" unicode="&#x13d;" horiz-adv-x="1273" 
d="M291 1456h-23v80h23q61 0 106 -46t45 -108q0 -71 -45 -126t-106 -54h-23v31q29 0 50 17t30.5 41.5t14 44.5t4.5 34q0 38 -21.5 62t-54.5 24zM88 111h1133v-111h-1168v1536h111v-1386l-76 -25v-14z" />
    <glyph glyph-name="lcaron" unicode="&#x13e;" horiz-adv-x="495" 
d="M291 1456h-23v80h23q61 0 106 -46t45 -108q0 -72 -45.5 -126.5t-107.5 -53.5h-21v31q29 0 50 17t30.5 41.5t14 44.5t4.5 34q0 38 -21.5 62t-54.5 24zM233 111h48v-111h-97q-61 0 -96 41.5t-35 95.5v1399h111v-1356q0 -29 20 -49t49 -20z" />
    <glyph glyph-name="Ldot" unicode="&#x13f;" horiz-adv-x="966" 
d="M154 1380h180v-1230h590v-150h-770v1380zM596 762q0 40 30 71t72 31q41 0 70 -31t29 -71q0 -42 -29.5 -73.5t-71.5 -31.5t-71 31.5t-29 73.5z" />
    <glyph glyph-name="ldot" unicode="&#x140;" horiz-adv-x="557" 
d="M150 1454h180v-1454h-180v1454zM420 801q0 42 28.5 72t69.5 30q40 0 67 -29.5t27 -72.5q0 -42 -27 -72.5t-69 -30.5q-41 0 -68.5 30.5t-27.5 72.5z" />
    <glyph glyph-name="Lslash" unicode="&#x141;" horiz-adv-x="1566" 
d="M383 111h1130v-111h-1167v610l-160 -213h-133l6 6l287 383v750h111v-602l155 207h133l-288 -383v-608l-74 -25v-14z" />
    <glyph glyph-name="lslash" unicode="&#x142;" horiz-adv-x="798" 
d="M522 111h49v-111h-96q-61 0 -96 41.5t-35 95.5v469l-158 -209h-133l291 385v754h111v-606l157 211h133l-290 -387v-574q0 -29 19.5 -49t47.5 -20z" />
    <glyph glyph-name="Nacute" unicode="&#x143;" horiz-adv-x="1347" 
d="M156 0v1380h196l441 -698q153 -243 245 -449l6 3q-20 230 -20 567v577h168v-1380h-180l-439 700q-172 276 -256 461l-6 -2q13 -226 13 -569v-590h-168zM569 1454l189 240h219l-262 -240h-146z" />
    <glyph glyph-name="nacute" unicode="&#x144;" horiz-adv-x="1136" 
d="M150 723q0 145 -9 268h160l10 -164h4q41 77 127 131t201 54q45 0 89.5 -11t92.5 -40.5t84.5 -75t60 -122t23.5 -173.5v-590h-180v571q0 131 -54.5 212t-174.5 81q-105 0 -179.5 -81.5t-74.5 -186.5v-596h-180v723zM471 1126l180 293h197l-250 -293h-127z" />
    <glyph glyph-name="uni0145" unicode="&#x145;" horiz-adv-x="1347" 
d="M156 0v1380h196l441 -698q153 -243 245 -449l6 3q-20 230 -20 567v577h168v-1380h-180l-439 700q-172 276 -256 461l-6 -2q13 -226 13 -569v-590h-168zM518 -369q66 10 110 43.5t44 89.5q0 66 -70 125l133 29q34 -22 58 -62.5t24 -88.5q0 -54 -23 -96t-62 -67.5
t-84 -39.5t-95 -17z" />
    <glyph glyph-name="uni0146" unicode="&#x146;" horiz-adv-x="1136" 
d="M150 723q0 145 -9 268h160l10 -164h4q41 77 127 131t201 54q45 0 89.5 -11t92.5 -40.5t84.5 -75t60 -122t23.5 -173.5v-590h-180v571q0 131 -54.5 212t-174.5 81q-105 0 -179.5 -81.5t-74.5 -186.5v-596h-180v723zM453 -451l-35 84q66 10 109.5 44t43.5 90q0 70 -69 124
l133 29q34 -22 58 -62.5t24 -88.5q0 -54 -23 -96t-62 -67.5t-84 -39.5t-95 -17z" />
    <glyph glyph-name="Ncaron" unicode="&#x147;" horiz-adv-x="1284" 
d="M53 1536h223l844 -1518v1518h111v-1536h-230l-837 1513v-1513h-111v1536zM559 1638l-90 252h92l80 -223l80 223h92l-90 -252h-164z" />
    <glyph glyph-name="ncaron" unicode="&#x148;" horiz-adv-x="1069" 
d="M53 961h111v-136l-60 -256h15l45 80q53 95 100 147q151 163 389 162q101 0 173.5 -71.5t72.5 -173.5v-533q0 -29 20 -49t48 -20h49v-111h-68q-66 0 -113 48t-47 114v532q0 64 -45 109t-108 45h-17q-67 0 -134 -24.5t-115 -56t-95 -76.5t-68.5 -70t-41.5 -52v-569h-111
v961zM350 1317h96l78 -223l80 223h94l-90 -252h-168z" />
    <glyph glyph-name="napostrophe" unicode="&#x149;" horiz-adv-x="1136" 
d="M141 991h160l10 -164h4q41 77 127 131t201 54q45 0 89.5 -11t92.5 -40.5t84.5 -75t60 -122t23.5 -173.5v-590h-180v571q0 131 -54.5 212t-174.5 81q-105 0 -179.5 -81.5t-74.5 -186.5v-596h-180v723q0 145 -9 268zM37 1157q22 25 36 44.5t27 53.5t13 70q0 68 -64 121
l131 35q28 -17 50 -57.5t22 -90.5q0 -39 -12 -75.5t-25.5 -58.5t-38 -47.5t-33 -32t-28.5 -21.5z" />
    <glyph glyph-name="Eng" unicode="&#x14a;" horiz-adv-x="1347" 
d="M156 0v1380h196l441 -698q153 -243 245 -449l6 3q-20 230 -20 567v577h168v-1302q0 -427 -395 -486l-37 140q124 25 187 86.5t73 169.5l-447 712q-172 276 -256 461l-6 -2q13 -226 13 -569v-590h-168z" />
    <glyph glyph-name="eng" unicode="&#x14b;" horiz-adv-x="1136" 
d="M141 991h160l10 -164h4q41 77 127 131t201 54q45 0 89.5 -11t92.5 -40.5t84.5 -75t60 -122t23.5 -173.5v-469q0 -115 -29.5 -204.5t-83.5 -147t-122.5 -91t-153.5 -45.5l-35 144q124 25 184 105t60 222v467q0 131 -54.5 212t-174.5 81q-105 0 -179.5 -81.5t-74.5 -186.5
v-596h-180v723q0 145 -9 268z" />
    <glyph glyph-name="Omacron" unicode="&#x14c;" horiz-adv-x="1411" 
d="M74 680q0 162 48 298t133 229.5t203 145.5t255 52q187 0 328.5 -89t217.5 -247.5t76 -363.5q0 -173 -50.5 -312.5t-138 -229.5t-203.5 -138t-249 -48q-182 0 -323 88t-219 248t-78 367zM707 1260q-108 0 -194.5 -47.5t-140 -128t-82 -183t-28.5 -217.5q0 -112 30 -213
t85 -178.5t140 -123.5t188 -46q137 0 239 78.5t152.5 207t50.5 287.5q0 84 -17 164.5t-53 153t-86.5 127.5t-124 87t-159.5 32zM952 1513h-491v113h491v-113z" />
    <glyph glyph-name="omacron" unicode="&#x14d;" horiz-adv-x="1124" 
d="M78 487q0 121 38.5 221t105 166t156 102t191.5 36q213 0 345.5 -141t132.5 -367q0 -106 -28.5 -195t-76.5 -149.5t-112 -102.5t-134 -61t-143 -19q-204 0 -339.5 140t-135.5 370zM565 877q-76 0 -136 -33.5t-95.5 -89t-53.5 -122t-18 -138.5q0 -164 84 -272.5t215 -108.5
q129 0 215 109t86 276q0 66 -17 130.5t-51 121.5t-93.5 92t-135.5 35zM793 1200h-461v117h461v-117z" />
    <glyph glyph-name="Obreve" unicode="&#x14e;" horiz-adv-x="1411" 
d="M74 680q0 162 48 298t133 229.5t203 145.5t255 52q187 0 328.5 -89t217.5 -247.5t76 -363.5q0 -173 -50.5 -312.5t-138 -229.5t-203.5 -138t-249 -48q-182 0 -323 88t-219 248t-78 367zM262 684q0 -112 30 -213t85 -178.5t140 -123.5t188 -46q137 0 239 78.5t152.5 207
t50.5 287.5q0 84 -17 164.5t-53 153t-86.5 127.5t-124 87t-159.5 32q-108 0 -194.5 -47.5t-140 -128t-82 -183t-28.5 -217.5zM700 1483q-123 0 -184.5 59.5t-64.5 157.5h106q9 -42 44.5 -71.5t103.5 -29.5q128 0 147 101h104q-3 -97 -66.5 -157t-189.5 -60z" />
    <glyph glyph-name="obreve" unicode="&#x14f;" horiz-adv-x="1017" 
d="M596 1206v23h72v-23q0 -61 -42 -102t-104 -41h-30q-61 0 -101.5 40.5t-40.5 102.5v23h72v-23q0 -37 23 -56.5t63 -19.5h2q40 0 63 19.5t23 56.5zM719 961q101 0 173.5 -72.5t72.5 -173.5v-469q0 -101 -72.5 -173.5t-173.5 -72.5h-420q-98 0 -169.5 68t-76.5 165v482
q0 101 72.5 173.5t173.5 72.5h420zM854 264v432q0 63 -46 108.5t-110 45.5h-381q-63 0 -108 -45.5t-45 -108.5v-438q3 -62 47.5 -104.5t105.5 -42.5h381q64 0 110 45t46 108z" />
    <glyph glyph-name="Ohungarumlaut" unicode="&#x150;" horiz-adv-x="1286" 
d="M672 1890l-90 -252h-95l91 252h94zM854 1890l-90 -252h-92l90 252h92zM575 1536h162q215 -3 355.5 -143.5t140.5 -350.5v-522q0 -105 -38.5 -200.5t-104.5 -166t-158.5 -112t-194.5 -41.5h-162q-139 0 -259 68t-191.5 188.5t-71.5 265.5v520q0 137 69 250.5t189 178.5
t264 65zM1118 569v426q0 210 -118.5 320t-313.5 110h-65q-95 0 -177 -27t-145.5 -79t-100 -135.5t-36.5 -188.5v-426q0 -105 37 -192.5t100 -144.5t146 -88t176 -31h67q190 0 310 122t120 334z" />
    <glyph glyph-name="ohungarumlaut" unicode="&#x151;" horiz-adv-x="1017" 
d="M553 1315l-90 -252h-94l90 252h94zM737 1315l-90 -252h-94l90 252h94zM299 961h420q101 0 173.5 -72.5t72.5 -173.5v-469q0 -101 -72.5 -173.5t-173.5 -72.5h-420q-98 0 -169.5 68t-76.5 165v482q0 101 72.5 173.5t173.5 72.5zM854 264v432q0 63 -46 108.5t-110 45.5
h-381q-63 0 -108 -45.5t-45 -108.5v-438q3 -62 47.5 -104.5t105.5 -42.5h381q64 0 110 45t46 108z" />
    <glyph glyph-name="OE" unicode="&#x152;" horiz-adv-x="1830" 
d="M74 680q0 168 50.5 305t140.5 228.5t215 141.5t274 50q78 0 180 -12q111 -13 131 -13h659v-149h-567v-438h535v-148h-535v-495h598v-150h-706q-38 0 -136 -12q-93 -11 -170 -11q-158 0 -285.5 54t-211 149.5t-128 223t-44.5 276.5zM262 688q0 -256 136.5 -410.5
t377.5 -154.5q125 0 201 27v1079q-91 31 -219 31q-228 0 -362 -158t-134 -414z" />
    <glyph glyph-name="oe" unicode="&#x153;" horiz-adv-x="1767" 
d="M78 489q0 236 135.5 379.5t339.5 143.5q127 0 227.5 -62.5t145.5 -173.5h4q54 116 149 176t213 60q91 0 163 -32t115 -80.5t72 -112.5t39.5 -122.5t10.5 -115.5q0 -48 -4 -84h-674q0 -164 91 -255t238 -91q140 0 265 55l34 -129q-58 -32 -146.5 -50t-174.5 -18
q-133 0 -234.5 58t-158.5 176h-4q-53 -115 -157.5 -174.5t-225.5 -59.5q-200 0 -331.5 140.5t-131.5 371.5zM553 877q-77 0 -135.5 -35.5t-91 -93t-48.5 -122t-16 -132.5q0 -162 83 -271.5t210 -109.5q130 0 210.5 106t80.5 277q0 58 -10.5 112t-33.5 103.5t-56.5 86t-83 58
t-109.5 21.5zM1278 883q-63 0 -114 -27.5t-81.5 -71.5t-48 -92t-22.5 -98h508q1 36 -5 73t-23 76.5t-43 70t-70.5 50t-100.5 19.5z" />
    <glyph glyph-name="Racute" unicode="&#x154;" horiz-adv-x="1101" 
d="M156 1362q163 29 342 29q81 0 151 -10t137 -36.5t114.5 -68t76.5 -108.5t29 -154q0 -129 -72 -220t-186 -130v-7q148 -53 200 -278q75 -320 107 -379h-185q-31 55 -90 330q-31 142 -93.5 202.5t-184.5 65.5h-168v-598h-178v1362zM510 1251q-122 0 -176 -14v-504h182
q142 0 226.5 71.5t84.5 190.5q0 129 -85 192.5t-232 63.5zM573 1458h-145l190 240h218z" />
    <glyph glyph-name="racute" unicode="&#x155;" horiz-adv-x="1075" 
d="M53 850v111h68q63 0 109 -43t51 -105l-60 -252h15l45 78q80 144 197.5 235t258.5 91q118 0 201.5 -66.5t83.5 -183.5v-58h-111v39q0 63 -45 108.5t-108 45.5h-17q-59 0 -118 -18t-107.5 -49.5t-87 -62t-72.5 -69t-47.5 -55t-27.5 -35.5v-561h-111v782q0 28 -20 48t-48 20
h-49zM387 1065l92 254h92l-92 -254h-92z" />
    <glyph glyph-name="uni0156" unicode="&#x156;" horiz-adv-x="1101" 
d="M156 0v1362q163 29 342 29q81 0 151 -10t137 -36.5t114.5 -68t76.5 -108.5t29 -154q0 -129 -72 -220t-186 -130v-7q148 -53 200 -278q75 -320 107 -379h-185q-31 55 -90 330q-31 142 -93.5 202.5t-184.5 65.5h-168v-598h-178zM334 1237v-504h182q142 0 226.5 71.5
t84.5 190.5q0 129 -85 192.5t-232 63.5q-122 0 -176 -14zM399 -356q66 10 110 43.5t44 89.5q0 66 -70 125l133 28q34 -22 58 -62.5t24 -88.5q0 -54 -23 -96t-62 -67t-84 -39t-95 -17z" />
    <glyph glyph-name="uni0157" unicode="&#x157;" horiz-adv-x="669" 
d="M141 991h158l8 -196h6q34 99 110 158t167 59q17 0 49 -4v-170q-18 4 -61 4q-63 0 -112.5 -27.5t-78 -73t-43 -100t-14.5 -113.5v-528h-180v682q0 171 -9 309zM88 -371q66 10 110 43.5t44 89.5q0 70 -70 125l133 29q34 -22 58 -63t24 -89q0 -54 -23 -96t-62 -67t-84 -39
t-95 -17z" />
    <glyph glyph-name="Rcaron" unicode="&#x158;" horiz-adv-x="1327" 
d="M53 0v1536h813q101 0 173.5 -71.5t72.5 -172.5v-315q0 -102 -70 -172q54 -34 84.5 -89.5t30.5 -121.5v-414q0 -29 20 -49t48 -20h49v-111h-68q-66 0 -112.5 47.5t-46.5 114.5v416q0 63 -45 108t-109 45h-729v-731h-111zM164 877l-74 -23v-12h758q63 0 108 45t45 108v287
q-3 60 -47.5 101.5t-105.5 41.5h-684v-548zM360 1890h93l79 -223l80 223h93l-91 -252h-163z" />
    <glyph glyph-name="rcaron" unicode="&#x159;" horiz-adv-x="1075" 
d="M53 850v111h68q63 0 109 -43t51 -105l-60 -252h15l45 78q80 144 197.5 235t258.5 91q118 0 201.5 -66.5t83.5 -183.5v-58h-111v39q0 63 -45 108.5t-108 45.5h-17q-59 0 -118 -18t-107.5 -49.5t-87 -62t-72.5 -69t-47.5 -55t-27.5 -35.5v-561h-111v782q0 28 -20 48t-48 20
h-49zM350 1317h96l78 -223l80 223h94l-90 -252h-168z" />
    <glyph glyph-name="Sacute" unicode="&#x15a;" horiz-adv-x="1009" 
d="M86 68l47 149q141 -90 318 -90q134 0 211 64.5t77 170.5q0 95 -60 157.5t-200 115.5q-178 67 -271 160.5t-93 232.5q0 163 123.5 269t322.5 106q188 0 303 -68l-49 -145q-104 65 -260 65q-130 0 -195 -62.5t-65 -143.5q0 -93 62.5 -151t211.5 -116q181 -70 266 -163.5
t85 -241.5q0 -81 -30 -152.5t-88 -127t-152 -88t-212 -32.5q-97 0 -195.5 26.5t-156.5 64.5zM422 1458l188 240h219l-262 -240h-145z" />
    <glyph glyph-name="sacute" unicode="&#x15b;" horiz-adv-x="811" 
d="M82 47l43 135q47 -28 112 -48.5t128 -20.5q93 0 141.5 40.5t48.5 106.5q0 63 -41 103t-141 77q-264 100 -264 281q0 124 94 207.5t248 83.5q147 0 241 -62l-43 -131q-94 60 -203 60q-77 0 -120 -39t-43 -97q0 -59 41.5 -94t144.5 -76q132 -49 196 -119.5t64 -177.5
q0 -134 -99 -216.5t-270 -82.5q-158 0 -278 70zM322 1126l178 293h198l-249 -293h-127z" />
    <glyph glyph-name="Scircumflex" unicode="&#x15c;" horiz-adv-x="1009" 
d="M438 -23q-97 0 -195.5 26.5t-156.5 64.5l47 149q141 -90 318 -90q134 0 211 64.5t77 170.5q0 95 -60 157.5t-200 115.5q-178 67 -271 160.5t-93 232.5q0 163 123.5 269t322.5 106q188 0 303 -68l-49 -145q-104 65 -260 65q-130 0 -195 -62.5t-65 -143.5q0 -93 62.5 -151
t211.5 -116q181 -70 266 -163.5t85 -241.5q0 -81 -30 -152.5t-88 -127t-152 -88t-212 -32.5zM373 1460h-146l211 234h135l215 -234h-151l-129 142h-4z" />
    <glyph glyph-name="scircumflex" unicode="&#x15d;" horiz-adv-x="1011" 
d="M506 1282l-78 -215h-94l90 246h164l88 -246h-92zM713 0h-414q-101 0 -173.5 72.5t-72.5 173.5v53h111v-35q0 -63 45 -108t108 -45h377q68 0 110 46.5t42 112.5q0 63 -44.5 109.5t-107.5 46.5h-395q-102 0 -174 77.5t-72 190.5q0 119 63 193t183 74h414q101 0 173 -72.5
t72 -173.5v-53h-112v34q0 63 -44.5 108.5t-107.5 45.5h-377q-64 0 -108.5 -43.5t-44.5 -112.5t44.5 -114t108.5 -45h396q102 0 173.5 -76t71.5 -189q0 -120 -62.5 -195t-182.5 -75z" />
    <glyph glyph-name="Scedilla" unicode="&#x15e;" horiz-adv-x="1009" 
d="M86 68l47 149q141 -90 318 -90q134 0 211 64.5t77 170.5q0 95 -60 157.5t-200 115.5q-178 67 -271 160.5t-93 232.5q0 163 123.5 269t322.5 106q188 0 303 -68l-49 -145q-104 65 -260 65q-130 0 -195 -62.5t-65 -143.5q0 -93 62.5 -151t211.5 -116q181 -70 266 -163.5
t85 -241.5q0 -144 -91.5 -251t-265.5 -138l-57 -90q61 -9 102 -49t41 -95q0 -82 -60.5 -123t-150.5 -41q-83 0 -141 35l29 88q58 -28 112 -28q37 0 60.5 15.5t23.5 47.5q0 70 -157 86l81 143h-14q-89 0 -188 26.5t-158 64.5z" />
    <glyph glyph-name="scedilla" unicode="&#x15f;" horiz-adv-x="811" 
d="M82 47l43 135q47 -28 112 -48.5t128 -20.5q93 0 141.5 40.5t48.5 106.5q0 63 -41 103t-141 77q-264 100 -264 281q0 124 94 207.5t248 83.5q147 0 241 -62l-43 -129q-98 58 -203 58q-77 0 -120 -39t-43 -97q0 -59 41.5 -94t144.5 -76q132 -49 196 -119.5t64 -177.5
q0 -110 -69.5 -186.5t-194.5 -99.5l-55 -92q59 -8 101 -46.5t42 -95.5q0 -85 -60.5 -125.5t-154.5 -40.5q-78 0 -139 35l30 88q54 -28 111 -28q38 0 63.5 15t24.5 48q0 73 -160 86l82 146h-6q-143 0 -262 67z" />
    <glyph glyph-name="Scaron" unicode="&#x160;" horiz-adv-x="1167" 
d="M584 1667l80 223h92l-90 -252h-164l-90 252h92zM1114 1235h-110v37q0 63 -45.5 108t-108.5 45h-533q-61 0 -105.5 -41.5t-47.5 -101.5v-285q0 -63 45 -108t108 -45h551q101 0 173.5 -72.5t72.5 -173.5v-352q0 -107 -66 -176.5t-180 -69.5h-569q-101 0 -173.5 72.5
t-72.5 173.5v53h111v-35q0 -63 45 -108t108 -45h533q71 0 111 40t43 107v322q0 63 -45.5 108t-108.5 45h-551q-101 0 -173.5 72.5t-72.5 173.5v313q0 101 72.5 172.5t173.5 71.5h569q101 0 173.5 -72.5t72.5 -173.5v-55z" />
    <glyph glyph-name="scaron" unicode="&#x161;" horiz-adv-x="1011" 
d="M53 694q0 119 63 193t183 74h414q101 0 173 -72.5t72 -173.5v-53h-110v34q0 63 -45.5 108.5t-108.5 45.5h-377q-64 0 -108.5 -43.5t-44.5 -112.5t44.5 -114t108.5 -45h396q102 0 173.5 -76t71.5 -189q0 -120 -62.5 -195t-182.5 -75h-414q-101 0 -173.5 72.5t-72.5 173.5
v55h111v-37q0 -63 45 -108t108 -45h377q68 0 111 47.5t43 111.5q0 63 -45.5 109.5t-108.5 46.5h-395q-102 0 -174 77.5t-72 190.5zM432 1065l-90 252h94l78 -223l80 223h94l-90 -252h-166z" />
    <glyph glyph-name="uni0162" unicode="&#x162;" horiz-adv-x="1017" 
d="M-2 1229v151h1022v-151h-422v-1229h-180v1229h-420zM334 -371q66 10 109.5 43.5t43.5 89.5q0 67 -69 125l133 29q34 -22 58 -63t24 -89q0 -54 -23 -96t-62 -67t-84 -39t-95 -17z" />
    <glyph glyph-name="uni0163" unicode="&#x163;" horiz-adv-x="677" 
d="M37 854v137h153v185l177 53v-238h258v-137h-258v-535q0 -96 31 -144t104 -48q64 0 104 12l8 -137q-73 -25 -159 -25q-76 0 -130 26t-82.5 74t-40.5 105t-12 131v541h-153zM215 -381q66 10 110 43.5t44 89.5q0 70 -70 125l133 29q34 -22 58 -63t24 -89q0 -54 -23 -96
t-62 -67t-84 -39t-95 -17z" />
    <glyph glyph-name="Tcaron" unicode="&#x164;" horiz-adv-x="1284" 
d="M662 1425h-609v111h1178v-111h-533v-1425h-110v1389l74 22v14zM561 1890l80 -223l80 223h92l-90 -252h-164l-90 252h92z" />
    <glyph glyph-name="tcaron" unicode="&#x165;" horiz-adv-x="1130" 
d="M461 1456h-23v80h23q61 0 106 -46t45 -108q0 -71 -45 -126t-106 -54h-23v31q29 0 50 17t30.5 41.5t14 44.5t4.5 34q0 38 -21.5 62t-54.5 24zM965 305h112v-59q0 -101 -72.5 -173.5t-173.5 -72.5h-360q-101 0 -173.5 72.5t-72.5 173.5v604h-172v111h250v12l-78 22v541h111
l2 -575h567v-111h-569v-582q0 -66 44.5 -111.5t108.5 -45.5h322q65 0 109.5 44.5t44.5 108.5v41z" />
    <glyph glyph-name="Tbar" unicode="&#x166;" horiz-adv-x="1017" 
d="M-2 1380h1022v-151h-422v-455h254v-119h-254v-655h-180v655h-256v119h256v455h-420v151z" />
    <glyph glyph-name="tbar" unicode="&#x167;" horiz-adv-x="677" 
d="M37 854v137h153v185l177 53v-238h258v-137h-258v-236h200v-110h-200v-197q0 -184 135 -184q64 0 104 12l8 -137q-73 -25 -159 -25q-76 0 -130 26t-82.5 74t-40.5 105t-12 131v195h-135v110h135v236h-153z" />
    <glyph glyph-name="Utilde" unicode="&#x168;" horiz-adv-x="1325" 
d="M649 -23q-110 0 -197.5 32.5t-155.5 100.5t-105 184t-37 273v813h180v-819q0 -220 87.5 -329t233.5 -109q158 0 247 109t89 329v819h180v-807q0 -155 -39 -271.5t-110.5 -186.5t-164.5 -104t-208 -34zM408 1464q-2 95 36 152t103 57q21 0 43.5 -6.5t35.5 -12.5t44 -22
q6 -3 23.5 -12t26.5 -13t22.5 -8t25.5 -4q25 0 38 16.5t17 63.5h95q3 -198 -138 -198q-47 0 -127 39q-10 5 -32.5 17t-36 16.5t-27.5 4.5q-43 0 -53 -90h-96z" />
    <glyph glyph-name="utilde" unicode="&#x169;" horiz-adv-x="1128" 
d="M143 412v579h181v-547q0 -317 221 -317q105 0 179.5 77t74.5 181v606h180v-719q0 -168 8 -272h-160l-10 162h-4q-41 -73 -125 -129t-203 -56q-50 0 -95.5 11.5t-92 42.5t-79.5 78t-54 125t-21 178zM311 1161q-3 99 35 156t105 57q7 0 14 -0.5t15 -2.5t13 -3t14.5 -5
t13 -5t14.5 -6.5t13.5 -6.5t16 -8t15.5 -8q8 -4 23 -12t23 -12t19.5 -7.5t20.5 -3.5q25 0 38.5 19t16.5 67h96q3 -206 -139 -206q-50 0 -127 45q-61 34 -88 34q-47 0 -53 -92h-99z" />
    <glyph glyph-name="Umacron" unicode="&#x16a;" horiz-adv-x="1325" 
d="M154 567v813h180v-819q0 -220 87.5 -329t233.5 -109q158 0 247 109t89 329v819h180v-807q0 -155 -39 -271.5t-110.5 -186.5t-164.5 -104t-208 -34q-110 0 -197.5 32.5t-155.5 100.5t-105 184t-37 273zM416 1614h491v-113h-491v113z" />
    <glyph glyph-name="umacron" unicode="&#x16b;" horiz-adv-x="1128" 
d="M143 412v579h181v-547q0 -317 221 -317q105 0 179.5 77t74.5 181v606h180v-719q0 -168 8 -272h-160l-10 162h-4q-41 -73 -125 -129t-203 -56q-50 0 -95.5 11.5t-92 42.5t-79.5 78t-54 125t-21 178zM334 1200v117h461v-117h-461z" />
    <glyph glyph-name="Ubreve" unicode="&#x16c;" horiz-adv-x="1124" 
d="M53 1380h180v-819q0 -220 88 -329t234 -109q158 0 247 109t89 329v819h180v-807q0 -155 -39 -271.5t-110.5 -186.5t-164.5 -104t-208 -34q-110 0 -197.5 32.5t-156 100.5t-105.5 184t-37 273v813zM559 1477q-124 0 -186.5 59.5t-65.5 157.5h107q9 -42 44 -71.5t103 -29.5
q131 0 150 101h104q-3 -97 -66.5 -157t-189.5 -60z" />
    <glyph glyph-name="ubreve" unicode="&#x16d;" horiz-adv-x="1128" 
d="M143 991h181v-547q0 -317 221 -317q105 0 179.5 77t74.5 181v606h180v-719q0 -168 8 -272h-160l-10 162h-4q-41 -73 -125 -129t-203 -56q-50 0 -95.5 11.5t-92 42.5t-79.5 78t-54 125t-21 178v579zM563 1141q-126 0 -190 74.5t-64 181.5h107q9 -63 47.5 -102.5
t97.5 -39.5q69 0 107 41.5t43 100.5h106q0 -116 -69.5 -186t-184.5 -70z" />
    <glyph glyph-name="Uring" unicode="&#x16e;" horiz-adv-x="1284" 
d="M623 1968q61 0 101 -41.5t40 -103.5v-41q0 -61 -42 -102.5t-104 -41.5h-32q-61 0 -100.5 41t-39.5 103v41q0 62 41.5 103.5t102.5 41.5h33zM692 1782v43q0 37 -23 56.5t-63 19.5h-2q-40 0 -63 -19.5t-23 -56.5v-43q0 -37 23 -56.5t63 -19.5h2q40 0 63 19.5t23 56.5z
M1182 111h49v-111h-68q-53 0 -94.5 31.5t-56.5 81.5l51 221h-14l-45 -78q-83 -89 -184 -160.5t-195 -89.5q-145 -24 -277.5 38t-212.5 185.5t-80 272.5l-2 1034h111l2 -1014q0 -144 87 -248t228 -147q209 -53 523 227v1182h110v-1358q0 -28 20 -47.5t48 -19.5z" />
    <glyph glyph-name="uring" unicode="&#x16f;" horiz-adv-x="1079" 
d="M500 1399q61 0 101 -41t40 -103v-41q0 -62 -41.5 -103.5t-103.5 -41.5h-33q-61 0 -100 41.5t-39 103.5v41q0 62 41 103t102 41h33zM569 1212v43q0 37 -23.5 57.5t-62.5 20.5h-4q-39 0 -62.5 -20.5t-23.5 -57.5v-43q0 -37 23 -56t63 -19h4q40 0 63 19t23 56zM977 113h49
v-111h-68q-64 0 -110 44.5t-51 109.5l59 252h-14l-45 -78q-40 -77 -96 -141.5t-128.5 -113.5t-154 -66t-172.5 1q-84 19 -138.5 86t-54.5 154v713h111v-695q0 -63 45.5 -108t109.5 -45q72 0 146.5 28.5t128 67t101.5 84t71 73t31 40.5v555h112v-748v-33q0 -29 20 -49t48 -20
z" />
    <glyph glyph-name="Uhungarumlaut" unicode="&#x170;" horiz-adv-x="1284" 
d="M53 1536h111l2 -1014q0 -144 87 -248t228 -147q31 -8 70 -8q187 0 453 235v1182h110v-1358q0 -28 20 -47.5t48 -19.5h49v-111h-68q-53 0 -94.5 31.5t-56.5 81.5l51 221h-14l-45 -78q-50 -53 -97.5 -94t-106 -80t-123.5 -60.5t-130 -21.5q-130 0 -243.5 67.5t-181 183.5
t-67.5 251zM530 1890h95l-90 -252h-95zM625 1638l90 252h94l-92 -252h-92z" />
    <glyph glyph-name="uhungarumlaut" unicode="&#x171;" horiz-adv-x="1079" 
d="M336 0q-117 0 -200 67t-83 183v713h111v-695q0 -63 45.5 -108t109.5 -45q72 0 146.5 28.5t128 67t101.5 84t71 73t31 40.5v555h112v-781q0 -28 20 -48.5t48 -20.5h49v-111h-68q-64 0 -110 44.5t-51 109.5l59 252h-14l-45 -78q-75 -142 -197 -236t-264 -94zM610 1315h95
l-91 -252h-94zM336 1063l90 252h94l-90 -252h-94z" />
    <glyph glyph-name="Uogonek" unicode="&#x172;" horiz-adv-x="1325" 
d="M154 567v813h180v-819q0 -220 87.5 -329t233.5 -109q159 0 247.5 108.5t88.5 329.5v819h180v-807q0 -252 -102 -396t-278 -181q-50 -44 -87.5 -100t-37.5 -105q0 -43 25.5 -65.5t66.5 -22.5q45 0 92 21l29 -93q-31 -23 -78 -36t-90 -13q-85 0 -135 44t-50 120
q0 105 117 231h-12q-106 3 -190 37t-150 102t-101.5 182.5t-35.5 268.5z" />
    <glyph glyph-name="uogonek" unicode="&#x173;" horiz-adv-x="1128" 
d="M485 -23q-50 0 -95.5 11.5t-92 42.5t-79.5 78t-54 125t-21 178v579h181v-547q0 -317 221 -317q105 0 179.5 77t74.5 181v606h180v-719q0 -171 8 -272l-43 6q-84 -117 -84 -201q0 -51 29.5 -78.5t75.5 -27.5q51 0 92 18l28 -94q-31 -22 -77.5 -34.5t-87.5 -12.5
q-87 0 -139 46t-52 132q0 106 98 252l-10 156h-4q-41 -73 -125 -129t-203 -56z" />
    <glyph glyph-name="Wcircumflex" unicode="&#x174;" horiz-adv-x="1732" 
d="M31 1380h188l164 -698q58 -245 102 -477h4q24 140 113 479l184 696h187l168 -700q73 -308 96 -473h4q27 139 111 477l182 696h182l-391 -1380h-186l-174 719q-70 285 -91 450h-4q-32 -193 -106 -450l-197 -719h-186zM590 1454l209 234h137l215 -234h-152l-129 141h-4
l-131 -141h-145z" />
    <glyph glyph-name="wcircumflex" unicode="&#x175;" horiz-adv-x="1507" 
d="M336 0l-299 991h184l133 -504q60 -246 72 -315h6q35 153 88 313l162 506h152l153 -495q52 -167 88 -324h6q19 121 76 322l141 497h179l-320 -991h-164l-151 473q-57 180 -88 326h-4q-36 -169 -91 -328l-159 -471h-164zM496 1126l194 293h123l197 -293h-138l-118 193h-4
l-119 -193h-135z" />
    <glyph glyph-name="Ycircumflex" unicode="&#x176;" horiz-adv-x="1107" 
d="M25 1380h204l195 -381q113 -231 137 -284h4q13 32 31 70t32 65t39 75t38 74l198 381h201l-461 -792v-588h-180v586zM274 1454l209 234h138l215 -234h-152l-129 141h-4l-131 -141h-146z" />
    <glyph glyph-name="ycircumflex" unicode="&#x177;" horiz-adv-x="964" 
d="M383 78l-365 913h197l215 -585q39 -102 66 -203h4q6 19 17.5 60t23 78t22.5 69l197 581h190l-270 -706q-100 -263 -175 -402t-165 -219q-114 -96 -221 -115l-45 150q84 26 157 88q45 39 105.5 121t60.5 123q0 7 -14 47zM365 1126h-136l193 293h125l196 -293h-137
l-119 193h-4z" />
    <glyph glyph-name="Ydieresis" unicode="&#x178;" horiz-adv-x="1284" 
d="M442 1679q-9 27 2 51t37 33t50.5 -2.5t33.5 -36.5q9 -26 -2.5 -50.5t-36.5 -33.5q-26 -9 -50.5 2.5t-33.5 36.5zM719 1679q-9 26 2.5 50.5t36.5 33.5q26 9 50.5 -2.5t33.5 -36.5q9 -26 -2.5 -50.5t-36.5 -33.5q-26 -9 -50.5 2.5t-33.5 36.5zM1106 1536h125l-533 -834
v-702h-112v702l-533 834h125l463 -723z" />
    <glyph glyph-name="Zacute" unicode="&#x179;" horiz-adv-x="1132" 
d="M61 0v104l764 1121v6h-698v149h932v-108l-762 -1116v-6h772v-150h-1008zM666 1694h217l-262 -240h-146z" />
    <glyph glyph-name="zacute" unicode="&#x17a;" horiz-adv-x="876" 
d="M37 0v104l446 584q38 47 131 156v4h-536v143h753v-112l-442 -576q-93 -119 -127 -156v-4h578v-143h-803zM354 1126l178 293h199l-250 -293h-127z" />
    <glyph glyph-name="Zdotaccent" unicode="&#x17b;" horiz-adv-x="1132" 
d="M61 104l764 1121v6h-698v149h932v-108l-762 -1116v-6h772v-150h-1008v104zM573 1475q-42 0 -71 31t-29 73q0 40 30 71t72 31q41 0 70 -31t29 -71q0 -42 -29.5 -73t-71.5 -31z" />
    <glyph glyph-name="zdotaccent" unicode="&#x17c;" horiz-adv-x="876" 
d="M37 0v104l446 584q38 47 131 156v4h-536v143h753v-112l-442 -576q-93 -119 -127 -156v-4h578v-143h-803zM340 1272q0 44 30.5 75t73.5 31t72 -31t29 -75q0 -43 -29 -74t-74 -31q-43 0 -72.5 31.5t-29.5 73.5z" />
    <glyph glyph-name="Zcaron" unicode="&#x17d;" horiz-adv-x="1286" 
d="M53 1423v113h1176l2 -113l-993 -1278l-86 -18v-14h1081v-113h-1178v113l1000 1278l80 18v14h-1082zM471 1890h92l80 -223l80 223h92l-90 -252h-164z" />
    <glyph glyph-name="zcaron" unicode="&#x17e;" horiz-adv-x="1015" 
d="M961 961v-89l-707 -733l-78 -18v-15h787v-106h-910v88l709 735l76 17v14h-785v107h908zM594 1317l-80 -223l-78 223h-94l90 -252h166l90 252h-94z" />
    <glyph glyph-name="florin" unicode="&#x192;" horiz-adv-x="950" 
d="M897 1231h-113v39q0 64 -45 109.5t-108 45.5h-121q-63 0 -108.5 -45.5t-45.5 -109.5v-4v-271l-75 -24v-10h616v-113h-541v-684v-29q0 -101 -73 -173.5t-174 -72.5h-56v111h37q63 0 108.5 46t45.5 110v692h-191v113h191v327q0 102 73 175t175 73h157q102 0 175 -73
t73 -175v-57z" />
    <glyph glyph-name="Ohorn" unicode="&#x1a0;" horiz-adv-x="1411" 
d="M74 680q0 162 48 298t133 229.5t203 145.5t255 52q117 0 215 -37q20 -6 68 -26.5t89 -34t70 -13.5q50 0 71 22.5t21 69.5q0 67 -35 132l140 26q39 -88 39 -168q0 -82 -48 -134t-139 -52q-5 0 -14 1t-14 1q73 -82 116 -206.5t43 -280.5q0 -173 -50.5 -312.5t-138 -229.5
t-203.5 -138t-249 -48q-182 0 -323 88t-219 248t-78 367zM262 684q0 -149 50.5 -275t153.5 -206t239 -80q137 0 239 78.5t152.5 207t50.5 287.5q0 84 -17 164.5t-53 153t-86.5 127.5t-124 87t-159.5 32q-108 0 -194.5 -48t-140 -129t-82 -183.5t-28.5 -215.5z" />
    <glyph glyph-name="ohorn" unicode="&#x1a1;" horiz-adv-x="1132" 
d="M78 487q0 121 38.5 221t105 166t156 102t191.5 36q77 0 170 -27q1 0 68.5 -26.5t105.5 -26.5q81 0 84 82q0 60 -34 119l137 24q35 -72 35 -149q0 -80 -46.5 -128.5t-130.5 -48.5h-14q103 -131 103 -327q0 -106 -28.5 -195t-76.5 -149.5t-112 -102.5t-134 -61t-143 -19
q-204 0 -339.5 140t-135.5 370zM565 877q-76 0 -136 -33.5t-95.5 -89t-53.5 -122t-18 -138.5q0 -164 84 -272.5t215 -108.5q129 0 215.5 109.5t87.5 277.5q0 52 -10 104t-33.5 102t-57 88t-85 61t-113.5 22z" />
    <glyph glyph-name="Uhorn" unicode="&#x1af;" horiz-adv-x="1386" 
d="M154 1380h180v-819q0 -220 87.5 -329t233.5 -109q158 0 247 109t89 329v819h162q51 0 72.5 18.5t21.5 59.5q0 58 -33 119l138 25q34 -76 34 -154q0 -77 -46.5 -122.5t-137.5 -51.5l-31 -2v-699q0 -155 -39 -271.5t-110.5 -186.5t-164.5 -104t-208 -34q-110 0 -197.5 32.5
t-155.5 100.5t-105 184t-37 273v813z" />
    <glyph glyph-name="uhorn" unicode="&#x1b0;" horiz-adv-x="1128" 
d="M143 412v579h181v-549q0 -315 221 -315q105 0 179.5 77t74.5 181v606h143q51 0 73.5 20.5t22.5 61.5q0 57 -37 117l138 24q37 -69 37 -147q0 -75 -49.5 -123t-125.5 -51h-22v-623q0 -166 8 -270h-160l-10 162h-4q-41 -73 -125 -129t-203 -56q-50 0 -95.5 11.5t-92 42.5
t-79.5 78t-54 125t-21 178z" />
    <glyph glyph-name="Aringacute" unicode="&#x1fa;" horiz-adv-x="1253" 
d="M236 0h-185l469 1380h217l471 -1380h-190l-148 434h-491zM416 573h418l-138 398q-29 85 -71 252h-4q-43 -171 -70 -250zM453 1575q0 69 51 115.5t137 46.5q84 0 133 -46t49 -116q0 -69 -50.5 -113.5t-133.5 -44.5q-85 0 -135.5 45t-50.5 113zM690 1774h-160l220 176h233z
M635 1663q-41 0 -64.5 -25.5t-23.5 -62.5q0 -34 25.5 -58t64.5 -24q41 0 66.5 23t25.5 61q0 36 -26 61t-68 25z" />
    <glyph glyph-name="aringacute" unicode="&#x1fb;" horiz-adv-x="987" 
d="M375 -23q-96 0 -166.5 42t-103.5 105.5t-33 137.5q0 180 154 275.5t442 93.5v20q0 29 -3.5 55t-17.5 59.5t-37.5 57.5t-66.5 40.5t-101 15.5q-148 0 -258 -74l-41 121q138 86 326 86q88 0 155.5 -23.5t108.5 -61.5t67 -92t36 -109t10 -118v-370q0 -143 14 -238h-162
l-16 125h-6q-43 -64 -122 -106t-179 -42zM670 506h-29q-77 0 -140.5 -10t-122.5 -33t-92.5 -69t-33.5 -111q0 -85 48 -128.5t122 -43.5q98 0 174 64t76 159zM287 1251q0 84 57 138.5t152 54.5q90 0 146 -54.5t56 -138.5q0 -79 -59 -132.5t-145 -53.5q-91 0 -149 53.5
t-58 132.5zM391 1251q0 -43 29 -76.5t72 -33.5q46 0 76 32.5t30 79.5q0 49 -29.5 82t-79.5 33q-44 0 -71 -34.5t-27 -82.5zM389 1491l219 217h199l-291 -217h-127z" />
    <glyph glyph-name="AEacute" unicode="&#x1fc;" horiz-adv-x="1613" 
d="M182 0h-184l631 1380h864l-2 -149h-586l53 -440h515v-148h-492l61 -493h506l-2 -150h-657l-62 485h-424zM463 631h344l-45 397q-22 176 -25 223h-8q-27 -72 -88 -217zM811 1454l188 240h220l-263 -240h-145z" />
    <glyph glyph-name="aeacute" unicode="&#x1fd;" horiz-adv-x="1583" 
d="M383 -23q-147 0 -228 83.5t-81 199.5q0 170 148.5 264t422.5 94h25v41q0 19 -4.5 42t-19 56t-38 59t-67.5 44.5t-101 18.5q-68 0 -138 -21t-116 -53l-43 117q65 42 150 66t160 24q252 0 319 -209h4q50 98 139.5 153.5t206.5 55.5q63 0 117 -16.5t92.5 -44.5t70 -66.5
t51 -79.5t32.5 -86t18.5 -85t5.5 -77q0 -53 -6 -80h-665q-4 -172 84 -266t233 -94q153 0 270 55l33 -127q-129 -68 -325 -68q-130 0 -232.5 58t-144.5 162h-6q-46 -103 -143 -161.5t-224 -58.5zM674 498h-29q-76 0 -140 -9.5t-124 -33t-94.5 -69.5t-34.5 -112
q0 -76 49.5 -119.5t126.5 -43.5q106 0 176 68.5t70 172.5v146zM1104 885q-64 0 -116 -27.5t-83 -70.5t-48 -89.5t-19 -91.5h499q1 32 -5 67.5t-23 74t-43 68.5t-68 49.5t-94 19.5zM698 1126l179 293h198l-250 -293h-127z" />
    <glyph glyph-name="Oslashacute" unicode="&#x1fe;" horiz-adv-x="1388" 
d="M1335 1536l-145 -197q94 -131 94 -297v-522q0 -105 -38.5 -200.5t-104.5 -166t-158.5 -112t-194.5 -41.5h-161q-191 0 -338 125l-92 -125h-144l156 209q-105 137 -105 313v520q0 137 69 250.5t189.5 178.5t264.5 65h161q190 -3 322 -113l84 113h141zM213 569
q0 -146 72 -258l753 1016q-113 98 -301 98h-65q-95 0 -177 -27t-145.5 -79t-100 -135.5t-36.5 -188.5v-426zM1169 569v426q0 140 -57 242l-752 -1016q127 -108 312 -108h67q190 0 310 122t120 334zM737 1638l90 252h-92l-90 -252h92z" />
    <glyph glyph-name="oslashacute" unicode="&#x1ff;" horiz-adv-x="1349" 
d="M1296 961l-182 -160q16 -43 16 -86v-469q0 -101 -72 -173.5t-173 -72.5h-420q-106 0 -176 76l-86 -76h-150l183 160q-14 35 -17 73v482q0 101 72.5 173.5t173.5 72.5h420q103 0 176 -76l84 76h151zM330 258q0 -2 1 -6t1 -6l639 561q-43 43 -107 43h-381q-63 0 -108 -45.5
t-45 -108.5v-438zM1020 696q0 3 -1 10t-1 11l-641 -563q46 -43 106 -43h381q64 0 110 45t46 108v432zM727 1065l92 254h-92l-92 -254h92z" />
    <glyph glyph-name="uni0218" unicode="&#x218;" horiz-adv-x="1009" 
d="M438 -23q-97 0 -195.5 26.5t-156.5 64.5l47 149q141 -90 318 -90q134 0 211 64.5t77 170.5q0 95 -60 157.5t-200 115.5q-178 67 -271 160.5t-93 232.5q0 163 123.5 269t322.5 106q188 0 303 -68l-49 -145q-104 65 -260 65q-130 0 -195 -62.5t-65 -143.5q0 -93 62.5 -151
t211.5 -116q181 -70 266 -163.5t85 -241.5q0 -81 -30 -152.5t-88 -127t-152 -88t-212 -32.5zM344 -371q66 10 110 43.5t44 89.5q0 66 -70 125l133 29q34 -22 58 -63t24 -89q0 -54 -23 -96t-61.5 -67t-83 -39t-94.5 -17z" />
    <glyph glyph-name="uni0219" unicode="&#x219;" horiz-adv-x="811" 
d="M360 -23q-158 0 -278 70l43 135q47 -28 112 -48.5t128 -20.5q93 0 141.5 40.5t48.5 106.5q0 63 -41 103t-141 77q-264 100 -264 281q0 124 94 207.5t248 83.5q147 0 241 -62l-43 -131q-94 60 -203 60q-77 0 -120 -39t-43 -97q0 -59 41.5 -94t144.5 -76
q132 -49 196 -119.5t64 -177.5q0 -134 -99 -216.5t-270 -82.5zM244 -371q66 10 109.5 43.5t43.5 89.5q0 35 -19.5 68.5t-49.5 56.5l133 29q34 -22 58 -63t24 -89q0 -54 -23 -96t-62 -67t-84 -39t-95 -17z" />
    <glyph glyph-name="uni021A" unicode="&#x21a;" horiz-adv-x="1017" 
d="M-2 1229v151h1022v-151h-422v-1229h-180v1229h-420zM334 -371q66 10 109.5 43.5t43.5 89.5q0 67 -69 125l133 29q34 -22 58 -63t24 -89q0 -54 -23 -96t-62 -67t-84 -39t-95 -17z" />
    <glyph glyph-name="uni021B" unicode="&#x21b;" horiz-adv-x="677" 
d="M37 854v137h153v185l177 53v-238h258v-137h-258v-535q0 -96 31 -144t104 -48q64 0 104 12l8 -137q-73 -25 -159 -25q-76 0 -130 26t-82.5 74t-40.5 105t-12 131v541h-153zM215 -381q66 10 110 43.5t44 89.5q0 70 -70 125l133 29q34 -22 58 -63t24 -89q0 -54 -23 -96
t-62 -67t-84 -39t-95 -17z" />
    <glyph glyph-name="uni021C" unicode="&#x21c;" horiz-adv-x="983" 
d="M63 1309q58 36 157.5 66t195.5 30q166 0 269 -84t103 -219q0 -110 -70 -198t-181 -138v-6q160 -14 263 -115t103 -262q0 -236 -211.5 -407t-562.5 -212l-23 142q166 24 303 87t221.5 163t84.5 217q0 115 -78 191.5t-213 76.5q-93 0 -203 -35l-24 127q180 40 295.5 131
t115.5 209q0 84 -63 135.5t-164 53.5q-73 0 -152 -24t-129 -50z" />
    <glyph glyph-name="uni021D" unicode="&#x21d;" horiz-adv-x="874" 
d="M39 911q65 42 153.5 71.5t180.5 29.5q156 0 251 -77t95 -204q0 -98 -58.5 -173t-158.5 -116v-4q144 -18 230.5 -103t86.5 -218q0 -101 -48 -192.5t-138 -165t-230.5 -123.5t-314.5 -64l-16 139q24 2 56.5 6.5t89 17t109.5 30.5t110.5 48.5t100 68.5t70 93.5t27.5 120.5
q0 97 -67 160t-197 63q-74 0 -181 -30l-24 127q179 42 278 109t99 173q0 81 -57 126.5t-156 45.5q-112 0 -252 -77z" />
    <glyph glyph-name="uni0232" unicode="&#x232;" horiz-adv-x="1107" 
d="M25 1380h204l195 -381q113 -231 137 -284h4q13 32 31 70t32 65t39 75t38 74l198 381h201l-461 -792v-588h-180v586zM801 1501h-492v113h492v-113z" />
    <glyph glyph-name="uni0233" unicode="&#x233;" horiz-adv-x="964" 
d="M18 991h197l215 -585q39 -102 66 -203h4q6 19 17.5 60t23 78t22.5 69l197 581h190l-270 -706q-100 -263 -175 -402t-165 -219q-114 -96 -221 -115l-45 150q84 26 157 88q45 39 105.5 121t60.5 123q0 7 -14 47zM254 1317h461v-117h-461v117z" />
    <glyph glyph-name="circumflex" unicode="&#x2c6;" 
d="M51 1126l193 293h125l196 -293h-137l-119 193h-4l-119 -193h-135z" />
    <glyph glyph-name="caron" unicode="&#x2c7;" 
d="M49 1419h137l121 -194h4l121 194h135l-192 -293h-129z" />
    <glyph glyph-name="uni02C9" unicode="&#x2c9;" 
d="M78 1317h461v-117h-461v117z" />
    <glyph glyph-name="breve" unicode="&#x2d8;" 
d="M53 1397h107q9 -63 47.5 -102.5t97.5 -39.5q69 0 107 41.5t43 100.5h106q0 -116 -69.5 -186t-184.5 -70q-126 0 -190 74.5t-64 181.5z" />
    <glyph glyph-name="dotaccent" unicode="&#x2d9;" 
d="M182 1272q0 44 31 75t74 31t71.5 -31t28.5 -75q0 -43 -29 -74t-73 -31q-43 0 -73 31.5t-30 73.5z" />
    <glyph glyph-name="ring" unicode="&#x2da;" 
d="M84 1286q0 83 57.5 138t151.5 55q91 0 147 -54.5t56 -138.5q0 -80 -58.5 -133t-146.5 -53q-90 0 -148.5 53.5t-58.5 132.5zM188 1286q0 -43 29.5 -76.5t73.5 -33.5q46 0 75 32.5t29 79.5q0 49 -29 82t-77 33q-46 0 -73.5 -34t-27.5 -83z" />
    <glyph glyph-name="ogonek" unicode="&#x2db;" 
d="M129 -244q0 119 123 252h117l-15 -18q-15 -19 -20.5 -26.5t-20 -27t-21 -33t-15.5 -32t-13 -35.5t-4 -33q0 -47 28 -74.5t74 -27.5q53 0 95 20l28 -94q-31 -22 -77 -34.5t-86 -12.5q-88 0 -140.5 46t-52.5 130z" />
    <glyph glyph-name="tilde" unicode="&#x2dc;" 
d="M55 1161q-3 99 35 156t105 57q21 0 44.5 -7.5t36.5 -13.5t46 -24q8 -4 23.5 -12t23.5 -12t19.5 -7.5t21.5 -3.5q25 0 38.5 19t16.5 67h96q3 -206 -139 -206q-47 0 -127 43q-6 3 -17 9t-15.5 8.5t-12.5 6.5t-12 5.5t-10 3.5t-11 2.5t-10 0.5q-47 0 -53 -92h-99z" />
    <glyph glyph-name="hungarumlaut" unicode="&#x2dd;" 
d="M385 1141l162 278h176l-225 -278h-113zM90 1141l162 278h176l-225 -278h-113z" />
    <glyph glyph-name="uni037E" unicode="&#x37e;" horiz-adv-x="444" 
d="M188 -238l-127 -14q30 104 58.5 244t36.5 241l198 11q-25 -112 -76 -257t-90 -225zM242 662q-55 0 -90 38.5t-35 96.5q0 59 36 97t93 38t92 -37.5t35 -97.5q0 -58 -36 -96.5t-95 -38.5z" />
    <glyph glyph-name="tonos" unicode="&#x384;" horiz-adv-x="616" 
d="M281 1421h182l-170 -293h-121z" />
    <glyph glyph-name="dieresistonos" unicode="&#x385;" horiz-adv-x="708" 
d="M367 1133h-99l43 321h156zM504 1270q0 41 28 69.5t68 28.5t67 -28.5t27 -69.5q0 -39 -27.5 -67.5t-70.5 -28.5q-39 0 -65.5 28.5t-26.5 67.5zM102 1174q-40 0 -67 28.5t-27 67.5q0 41 28.5 69.5t69.5 28.5q38 0 65.5 -28.5t27.5 -69.5q0 -39 -27.5 -67.5t-69.5 -28.5z
" />
    <glyph glyph-name="Alphatonos" unicode="&#x386;" horiz-adv-x="1259" 
d="M59 0l469 1380h215l471 -1380h-190l-150 434h-487l-143 -434h-185zM422 573h418l-138 398q-36 111 -71 252h-4q-43 -173 -68 -250zM129 1063l14 317h162l-69 -317h-107z" />
    <glyph glyph-name="anoteleia" unicode="&#x387;" horiz-adv-x="444" 
d="M90 651q0 62 37 102t94 40q58 0 94.5 -39.5t36.5 -102.5q0 -59 -36.5 -98t-96.5 -39q-56 0 -92.5 39.5t-36.5 97.5z" />
    <glyph glyph-name="Epsilontonos" unicode="&#x388;" horiz-adv-x="1148" 
d="M297 0v1380h747v-149h-567v-436h535v-148h-535v-497h598v-150h-778zM0 1063l14 317h164l-72 -317h-106z" />
    <glyph glyph-name="Etatonos" unicode="&#x389;" horiz-adv-x="1478" 
d="M297 1380h178v-577h668v577h180v-1380h-180v647h-668v-647h-178v1380zM0 1063l14 317h162l-70 -317h-106z" />
    <glyph glyph-name="Iotatonos" unicode="&#x38a;" horiz-adv-x="632" 
d="M297 1380h180v-1380h-180v1380zM0 1063l14 317h164l-72 -317h-106z" />
    <glyph glyph-name="Omicrontonos" unicode="&#x38c;" horiz-adv-x="1490" 
d="M156 680q0 162 48 298t133 229.5t203 145.5t255 52q187 0 328.5 -89t217.5 -247.5t76 -363.5q0 -173 -50.5 -312.5t-138 -229.5t-203.5 -138t-249 -48q-182 0 -323 88t-219 248t-78 367zM788 1260q-108 0 -194 -48t-140 -129t-82 -183t-28 -216q0 -111 30 -211.5
t84.5 -178.5t139.5 -124.5t188 -46.5t188 45.5t140 124t85 182t30 221.5q0 106 -28 205t-80.5 180t-139 130t-193.5 49zM0 1063l14 317h164l-72 -317h-106z" />
    <glyph glyph-name="Upsilontonos" unicode="&#x38e;" horiz-adv-x="1447" 
d="M262 1247l31 146q77 -6 174 -57t164 -130q174 -196 213 -506h8q43 287 240 502q71 76 157 128t156 63l31 -146q-61 -23 -125.5 -70.5t-130.5 -121t-124 -182.5t-93 -236q-37 -132 -37 -283v-354h-181v356q0 148 -28 279q-30 135 -80 245.5t-111 185t-128 120t-136 61.5z
M106 1063h-106l14 317h162z" />
    <glyph glyph-name="Omegatonos" unicode="&#x38f;" horiz-adv-x="1519" 
d="M655 0h-520v141h299v6q-116 96 -193 247t-77 337q0 194 84 348.5t230.5 240t328.5 85.5q187 0 330 -88t218 -236t75 -331q0 -200 -77.5 -353.5t-195.5 -249.5v-6h299v-141h-518v113q135 90 221 247t86 359q0 98 -28.5 192.5t-82 173t-140 127t-191.5 48.5t-192.5 -46.5
t-143.5 -123.5t-86.5 -173.5t-30.5 -199.5q0 -192 88.5 -358.5t216.5 -245.5v-113zM0 1063l14 317h164l-72 -317h-106z" />
    <glyph glyph-name="iotadieresistonos" unicode="&#x390;" horiz-adv-x="483" 
d="M152 221v770h178v-751q0 -66 17.5 -93.5t68.5 -27.5h10l-12 -131q-33 -11 -78 -11q-88 0 -136 53t-48 191zM272 1106h-96l43 319h154zM502 1147q-38 0 -64 28.5t-26 67.5t27.5 66.5t66.5 27.5q40 0 66 -27t26 -67t-26.5 -68t-69.5 -28zM8 1147q-39 0 -65.5 28.5
t-26.5 67.5q0 38 28 66t68 28q38 0 64 -27t26 -67t-26 -68t-68 -28z" />
    <glyph glyph-name="Alpha" unicode="&#x391;" horiz-adv-x="1253" 
d="M51 0l471 1380h213l471 -1380h-190l-148 434h-489l-143 -434h-185zM551 973l-135 -400h418l-138 398q-29 85 -71 252h-4q-43 -171 -70 -250z" />
    <glyph glyph-name="Beta" unicode="&#x392;" horiz-adv-x="1110" 
d="M156 1360q134 31 325 31q256 0 377 -101q117 -86 117 -243q0 -101 -63.5 -183.5t-170.5 -120.5v-6q52 -12 100 -38.5t91 -67.5t68.5 -103t25.5 -135q0 -81 -24.5 -146t-69.5 -108t-100.5 -73.5t-125 -47t-135.5 -23.5t-139 -7q-158 0 -276 16v1356zM334 135q49 -8 149 -8
q73 0 134 14t112 44t80 83.5t29 126.5q0 90 -49.5 151.5t-128 88.5t-179.5 27h-147v-527zM334 1241v-446h162q137 0 217 65.5t80 167.5q0 115 -79.5 170t-221.5 55q-100 0 -158 -12z" />
    <glyph glyph-name="Gamma" unicode="&#x393;" horiz-adv-x="923" 
d="M154 1380h741v-149h-561v-1231h-180v1380z" />
    <glyph glyph-name="uni0394" unicode="&#x394;" horiz-adv-x="1269" 
d="M53 0v102l479 1278h203l475 -1278v-102h-1157zM532 936l-288 -786h768l-281 759q-66 180 -102 308h-6q-17 -65 -91 -281z" />
    <glyph glyph-name="Epsilon" unicode="&#x395;" horiz-adv-x="1007" 
d="M932 0h-778v1380h747v-149h-567v-436h534v-148h-534v-497h598v-150z" />
    <glyph glyph-name="Zeta" unicode="&#x396;" horiz-adv-x="1132" 
d="M61 0v104l764 1121v6h-698v149h932v-108l-762 -1116v-6h772v-150h-1008z" />
    <glyph glyph-name="Eta" unicode="&#x397;" horiz-adv-x="1335" 
d="M154 0v1380h180v-577h667v577h181v-1380h-181v647h-667v-647h-180z" />
    <glyph glyph-name="Theta" unicode="&#x398;" horiz-adv-x="1411" 
d="M74 678q0 161 48.5 297.5t133.5 230.5t203.5 146.5t255.5 52.5q186 0 327.5 -89t218 -248.5t76.5 -365.5q0 -172 -50.5 -311t-138 -228.5t-203.5 -137.5t-249 -48q-276 0 -449 194t-173 507zM262 682q0 -148 51 -273.5t154.5 -205.5t239.5 -80q137 0 239 78.5t152.5 207
t50.5 287.5q0 84 -17 164.5t-53 153t-86.5 127.5t-124 87t-159.5 32q-108 0 -195 -48t-141 -129.5t-82.5 -184t-28.5 -216.5zM428 784h555v-147h-555v147z" />
    <glyph glyph-name="Iota" unicode="&#x399;" horiz-adv-x="489" 
d="M154 1380h180v-1380h-180v1380z" />
    <glyph glyph-name="Kappa" unicode="&#x39a;" horiz-adv-x="1110" 
d="M156 1380h178v-665h6q67 96 109 147l421 518h222l-500 -585l538 -795h-210l-453 678l-133 -152v-526h-178v1380z" />
    <glyph glyph-name="Lambda" unicode="&#x39b;" horiz-adv-x="1247" 
d="M51 0l471 1380h211l475 -1380h-192l-320 950q-33 102 -71 262h-7q-25 -121 -67 -260l-313 -952h-187z" />
    <glyph glyph-name="Mu" unicode="&#x39c;" horiz-adv-x="1646" 
d="M289 0h-170l96 1380h227l236 -667q82 -244 139 -465h4q47 178 148 465l245 667h228l86 -1380h-176l-33 606q-23 444 -23 596h-4q-94 -306 -174 -524l-244 -670h-135l-225 658q-105 314 -158 536h-4q-6 -264 -26 -610z" />
    <glyph glyph-name="Nu" unicode="&#x39d;" horiz-adv-x="1347" 
d="M156 1380h196l441 -698q153 -243 245 -449l6 3q-20 230 -20 567v577h168v-1380h-180l-439 700q-172 276 -256 461l-6 -2q13 -226 13 -569v-590h-168v1380z" />
    <glyph glyph-name="Xi" unicode="&#x39e;" horiz-adv-x="1105" 
d="M111 1380h901v-147h-901v147zM178 788h766v-147h-766v147zM88 150h946v-150h-946v150z" />
    <glyph glyph-name="Omicron" unicode="&#x39f;" horiz-adv-x="1411" 
d="M74 680q0 162 48 298t133 229.5t203 145.5t255 52q187 0 328.5 -89t217.5 -247.5t76 -363.5q0 -173 -50.5 -312.5t-138 -229.5t-203.5 -138t-249 -48q-182 0 -323 88t-219 248t-78 367zM262 684q0 -149 50.5 -275t153.5 -206t239 -80q137 0 239 78.5t152.5 207
t50.5 287.5q0 84 -17 164.5t-53 153t-86.5 127.5t-124 87t-159.5 32q-108 0 -194.5 -48t-140 -129t-82 -183.5t-28.5 -215.5z" />
    <glyph glyph-name="Pi" unicode="&#x3a0;" horiz-adv-x="1298" 
d="M154 0v1380h989v-1380h-180v1229h-629v-1229h-180z" />
    <glyph glyph-name="Rho" unicode="&#x3a1;" horiz-adv-x="1089" 
d="M156 1364q166 27 342 27q104 0 191.5 -22t160.5 -67.5t114.5 -126t41.5 -188.5q0 -112 -42 -199.5t-115.5 -140t-167.5 -79.5t-204 -27q-94 0 -143 12v-553h-178v1364zM334 1235v-537q55 -14 147 -14q162 0 254 77t92 216q0 134 -87 203t-238 69q-114 0 -168 -14z" />
    <glyph glyph-name="Sigma" unicode="&#x3a3;" horiz-adv-x="1130" 
d="M287 156v-6h786v-150h-1020v106l479 580l-454 576v118h930v-147h-699v-8l422 -533z" />
    <glyph glyph-name="Tau" unicode="&#x3a4;" horiz-adv-x="1017" 
d="M-2 1229v151h1022v-151h-422v-1229h-180v1229h-420z" />
    <glyph glyph-name="Upsilon" unicode="&#x3a5;" horiz-adv-x="1204" 
d="M23 1247l30 146q77 -6 174 -57t164 -130q174 -196 213 -506h8q43 287 240 502q71 76 157 128t156 63l31 -146q-61 -23 -125.5 -70.5t-130.5 -121t-124 -182.5t-93 -236q-37 -132 -37 -283v-354h-180v356q0 144 -29 279q-30 135 -80 245.5t-111 185t-127.5 120
t-135.5 61.5z" />
    <glyph glyph-name="Phi" unicode="&#x3a6;" horiz-adv-x="1470" 
d="M647 53q-87 8 -168 35t-155 79t-129 122.5t-88 171.5t-33 221q0 123 35 228t92.5 178.5t133 127.5t155.5 81.5t161 33.5v103h172v-103q87 -6 169 -34.5t156 -82t129 -126.5t87.5 -175t32.5 -221t-32.5 -221t-87.5 -174.5t-129.5 -126t-157 -82t-171.5 -35.5v-106h-172
v106zM821 1204v-1022q75 7 144 43t125 98t89 156.5t33 208.5q0 119 -33.5 216.5t-89.5 159.5t-124.5 97.5t-143.5 42.5zM258 686q0 -110 32.5 -202.5t88 -154.5t124.5 -99.5t146 -47.5v1022q-69 -5 -136.5 -41t-125.5 -98t-93.5 -161t-35.5 -218z" />
    <glyph glyph-name="Chi" unicode="&#x3a7;" horiz-adv-x="1169" 
d="M51 0l422 698l-405 682h206l183 -323q85 -150 127 -234h6q49 102 125 234l186 323h207l-420 -671l430 -709h-207l-178 305q-89 145 -158 273h-4q-66 -136 -149 -275l-166 -303h-205z" />
    <glyph glyph-name="Psi" unicode="&#x3a8;" horiz-adv-x="1402" 
d="M616 422q-83 3 -156.5 21.5t-141 58t-116 96.5t-77.5 142t-29 190v450h174v-419q0 -381 346 -398v817h170v-819q72 4 131.5 29t109.5 75t78 135t28 199v381h174v-399q0 -260 -142 -403.5t-379 -155.5v-422h-170v422z" />
    <glyph glyph-name="uni03A9" unicode="&#x3a9;" horiz-adv-x="1443" 
d="M61 0v141h299v6q-115 96 -193 249t-79 337q0 194 84 348t230.5 239t328.5 85q187 0 330 -87.5t218 -235t75 -330.5q0 -197 -78 -351t-195 -254v-6h301v-141h-518v113q132 91 218.5 251.5t86.5 358.5q0 97 -28.5 190.5t-82 172t-140 126.5t-191.5 48t-192.5 -46
t-143.5 -122.5t-86.5 -173t-30.5 -199.5q0 -187 90 -356.5t218 -249.5v-113h-521z" />
    <glyph glyph-name="Iotadieresis" unicode="&#x3aa;" horiz-adv-x="489" 
d="M334 0h-180v1380h180v-1380zM332 1559q0 42 29 72t73 30q41 0 69.5 -29.5t28.5 -72.5t-28 -73t-74 -30q-42 0 -70 30.5t-28 72.5zM55 1456q-43 0 -71.5 30.5t-28.5 72.5t30 72t72 30q41 0 70 -29.5t29 -72.5t-28 -73t-73 -30z" />
    <glyph glyph-name="Upsilondieresis" unicode="&#x3ab;" horiz-adv-x="1204" 
d="M477 635q-30 135 -80 245.5t-111 185t-127.5 120t-135.5 61.5l30 146q77 -6 174 -57t164 -130q174 -196 213 -506h8q43 287 240 502q71 76 157 128t156 63l31 -146q-61 -23 -125.5 -70.5t-130.5 -121t-124 -182.5t-93 -236q-37 -132 -37 -283v-354h-180v356
q0 144 -29 279zM698 1530q0 42 29.5 72t73.5 30q41 0 69.5 -29.5t28.5 -72.5t-28 -73t-74 -30q-42 0 -70.5 30.5t-28.5 72.5zM422 1427q-43 0 -71.5 30.5t-28.5 72.5t30 72t72 30q41 0 69.5 -29.5t28.5 -72.5t-28 -73t-72 -30z" />
    <glyph glyph-name="alphatonos" unicode="&#x3ac;" horiz-adv-x="1128" 
d="M483 -23q-179 0 -292 137t-113 361q0 118 37 220t98 170.5t141 107.5t166 39q106 0 185.5 -51.5t119.5 -143.5h9q5 99 18 174h149q-9 -89 -17.5 -307t-8.5 -403q0 -88 22.5 -126t75.5 -40l-14 -129q-21 -9 -62 -9q-71 0 -117 50.5t-53 158.5h-6q-52 -96 -138 -152.5
t-200 -56.5zM543 870q-124 0 -203.5 -110.5t-79.5 -278.5v-4q0 -146 72.5 -251t195.5 -105q91 0 166.5 75t98.5 175q12 54 12 139q0 73 -8 108q-20 104 -90 178t-164 74zM596 1112h-121l111 293h180z" />
    <glyph glyph-name="epsilontonos" unicode="&#x3ad;" horiz-adv-x="901" 
d="M80 279q0 91 68.5 159.5t177.5 87.5v9q-96 21 -145.5 77t-51.5 133q0 107 104.5 187t290.5 80t301 -76l-39 -119q-36 24 -107 44t-140 20q-104 0 -167 -41t-63 -107q0 -72 76.5 -107.5t200.5 -35.5h121v-127h-127q-142 0 -227 -41.5t-85 -128.5q0 -84 77 -131t192 -47
q77 0 159.5 22t130.5 51l33 -120q-58 -39 -159 -65t-203 -26q-79 0 -150 16.5t-133 50.5t-98.5 94.5t-36.5 140.5zM416 1112l110 293h181l-170 -293h-121z" />
    <glyph glyph-name="etatonos" unicode="&#x3ae;" horiz-adv-x="1136" 
d="M121 991h162q28 -58 28 -164h4q41 77 127 131t201 54q45 0 89.5 -11t92.5 -40.5t84.5 -75t60 -122t23.5 -173.5v-627q0 -275 23 -369h-172q-31 76 -31 363v614q0 131 -54.5 212t-174.5 81q-106 0 -180 -80t-74 -186v-598h-180v723q0 182 -29 268zM627 1112h-119l108 293
h183z" />
    <glyph glyph-name="iotatonos" unicode="&#x3af;" horiz-adv-x="483" 
d="M150 221v770h180v-751q0 -66 17.5 -93.5t68.5 -27.5h10l-10 -131q-33 -11 -80 -11q-89 0 -137.5 53t-48.5 191zM285 1112h-121l108 293h185z" />
    <glyph glyph-name="upsilondieresistonos" unicode="&#x3b0;" horiz-adv-x="1073" 
d="M137 657q0 267 -22 334h172q28 -31 28 -184v-404q0 -72 19.5 -127.5t53 -86.5t72 -46.5t81.5 -15.5q127 0 194.5 122t67.5 339q0 125 -22.5 240.5t-45.5 162.5h170q28 -53 51 -162.5t23 -224.5q0 -93 -12.5 -177.5t-44.5 -168.5t-81.5 -144.5t-130.5 -98.5t-184 -38
q-173 0 -281 103t-108 299v278zM453 1104l43 319h153l-100 -319h-96zM690 1241q0 40 27 67t67 27t66.5 -27t26.5 -67q0 -39 -27 -66.5t-70 -27.5q-38 0 -64 27.5t-26 66.5zM193 1241q0 40 28 67t68 27q38 0 64 -27t26 -67q0 -39 -26 -66.5t-68 -27.5q-39 0 -65.5 27.5
t-26.5 66.5z" />
    <glyph glyph-name="alpha" unicode="&#x3b1;" horiz-adv-x="1128" 
d="M78 475q0 118 37 220t98 170.5t141 107.5t166 39q106 0 185.5 -51.5t119.5 -143.5h9q5 99 18 174h149q-9 -89 -17.5 -307t-8.5 -403q0 -88 22.5 -126t75.5 -40l-14 -129q-21 -9 -62 -9q-71 0 -117 50.5t-53 158.5h-6q-52 -96 -138 -152.5t-200 -56.5q-179 0 -292 137
t-113 361zM260 477q0 -146 72.5 -251t195.5 -105q91 0 166.5 75t98.5 175q12 54 12 139q0 73 -8 108q-20 104 -90 178t-164 74q-124 0 -203.5 -110.5t-79.5 -278.5v-4z" />
    <glyph glyph-name="beta" unicode="&#x3b2;" horiz-adv-x="1146" 
d="M145 -57v942q0 95 13 177.5t45 160.5t81.5 133t127.5 88t178 33q155 0 257.5 -99.5t102.5 -257.5q0 -112 -53.5 -197t-130.5 -122v-10q127 -25 215 -127t88 -263q0 -99 -36 -181t-96 -134t-136 -80.5t-158 -28.5q-197 0 -319 125h-5v-137q0 -266 25 -371h-168
q-31 82 -31 349zM573 1333q-125 0 -189.5 -107.5t-64.5 -320.5v-624q39 -66 115.5 -115t173.5 -49q123 0 202 80t79 202q0 144 -88.5 222.5t-231.5 83.5h-55v122q25 0 35 2q111 9 172 84.5t61 178.5q0 109 -58.5 175t-150.5 66z" />
    <glyph glyph-name="gamma" unicode="&#x3b3;" horiz-adv-x="950" 
d="M340 176q-51 222 -154.5 448.5t-195.5 366.5h203q75 -116 166 -338t135 -432h6q233 425 233 703v67h170q4 -16 4 -67q0 -314 -350 -871q-10 -16 -10 -49q0 -5 6 -410h-178q8 127 1.5 288.5t-36.5 293.5z" />
    <glyph glyph-name="delta" unicode="&#x3b4;" horiz-adv-x="1118" 
d="M559 -23q-97 0 -183.5 34t-153 96t-105.5 158t-39 212q0 177 104.5 307.5t270.5 208.5v11l-45 36q-127 105 -127 205q0 91 91.5 161.5t254.5 70.5q100 0 189.5 -30t137.5 -69l-53 -121q-39 30 -116 57t-154 27q-81 0 -124.5 -26.5t-43.5 -65.5q0 -20 8 -37.5t32.5 -41
t42 -37.5t64.5 -50l168 -133q129 -103 195.5 -214.5t66.5 -252.5q0 -226 -138 -366t-343 -140zM260 477q0 -165 92.5 -264.5t216.5 -99.5q123 0 207 97.5t84 260.5q0 205 -190 352l-111 86q-299 -157 -299 -432z" />
    <glyph glyph-name="epsilon" unicode="&#x3b5;" horiz-adv-x="901" 
d="M80 279q0 91 69 160.5t177 86.5v9q-94 21 -144.5 77.5t-52.5 132.5q0 107 104.5 187t290.5 80q188 0 301 -74l-39 -121q-36 24 -107 44t-140 20q-104 0 -167 -41t-63 -107q0 -72 76.5 -107.5t200.5 -35.5h121v-127h-127q-142 0 -227 -41.5t-85 -128.5q0 -84 77 -131
t192 -47q78 0 160.5 22.5t129.5 52.5l33 -122q-58 -39 -159 -65t-203 -26q-79 0 -150 16.5t-133 50.5t-98.5 94.5t-36.5 140.5z" />
    <glyph glyph-name="zeta" unicode="&#x3b6;" horiz-adv-x="837" 
d="M80 477q0 217 134.5 446t367.5 388v6h-146q-164 0 -239 22l18 119q66 -8 250 -8h342l27 -125q-162 -82 -293 -217t-205 -292.5t-74 -305.5q0 -155 65 -236.5t189 -123.5q42 -15 88 -25.5t112 -21.5t87 -15q18 -4 18 -22q0 -84 -39 -192.5t-84 -166.5l-118 35
q21 35 43 109.5t24 115.5q-98 14 -175.5 35t-153.5 60t-126 92.5t-81 135.5t-31 187z" />
    <glyph glyph-name="eta" unicode="&#x3b7;" horiz-adv-x="1136" 
d="M121 991h162q28 -58 28 -164h4q41 77 127 131t201 54q45 0 89.5 -11t92.5 -40.5t84.5 -75t60 -122t23.5 -173.5v-627q0 -275 23 -369h-172q-31 76 -31 363v614q0 131 -54.5 212t-174.5 81q-106 0 -180 -80t-74 -186v-598h-180v723q0 182 -29 268z" />
    <glyph glyph-name="theta" unicode="&#x3b8;" horiz-adv-x="1093" 
d="M549 -23q-222 0 -346.5 194.5t-124.5 567.5q0 212 54 377t164 263t261 98q154 0 258.5 -94t152.5 -256.5t48 -387.5q0 -235 -49.5 -403t-155.5 -263.5t-262 -95.5zM840 684h-584q0 -269 82 -421t217 -152q140 0 212.5 155.5t72.5 417.5zM547 1343q-88 0 -155.5 -74
t-101.5 -192.5t-34 -259.5h582q0 150 -30.5 266t-97.5 188t-163 72z" />
    <glyph glyph-name="iota" unicode="&#x3b9;" horiz-adv-x="483" 
d="M150 221v770h180v-751q0 -66 17.5 -93.5t68.5 -27.5h10l-10 -131q-33 -11 -80 -11q-89 0 -137.5 53t-48.5 191z" />
    <glyph glyph-name="kappa" unicode="&#x3ba;" horiz-adv-x="1009" 
d="M129 991h172q29 -37 29 -168v-272h8q105 99 260.5 260.5t173.5 179.5h211v-8q-129 -120 -471 -446v-7q67 -16 141 -89.5t164 -192.5l180 -248h-209l-155 211q-84 110 -152.5 169t-132.5 60h-18v-440h-178v776q0 158 -23 215z" />
    <glyph glyph-name="lambda" unicode="&#x3bb;" horiz-adv-x="966" 
d="M201 0h-187l359 918q10 29 10 47q0 23 -12 53q-26 61 -43.5 99.5t-43.5 83.5t-49.5 69.5t-55 41.5t-66.5 17q-23 0 -35 -2l16 139q24 9 70 9q48 0 89 -14t76 -45.5t63.5 -68t58 -94.5t52.5 -111.5t54 -133.5l379 -1008h-191l-200 567q-28 77 -68 215h-8q-13 -61 -63 -209
z" />
    <glyph glyph-name="uni03BC" unicode="&#x3bc;" horiz-adv-x="1132" 
d="M150 -39v1030h180v-585q0 -125 55 -203t168 -78q106 0 179 77t73 183v606h180v-719q0 -84 20 -118t74 -37l-14 -131q-35 -9 -64 -9q-70 0 -117.5 43t-58.5 134h-6q-36 -69 -109.5 -120.5t-174.5 -51.5q-71 0 -129 26.5t-89 81.5v-121q0 -270 23 -375h-162q-28 85 -28 367
z" />
    <glyph glyph-name="nu" unicode="&#x3bd;" horiz-adv-x="960" 
d="M371 0l-363 991h191l190 -555q17 -45 84 -260h8q50 97 78 155.5t77.5 173t75 214.5t25.5 180q0 63 -2 92h168q6 -30 6 -71q0 -101 -30 -216t-89 -242t-113 -226.5t-136 -235.5h-170z" />
    <glyph glyph-name="xi" unicode="&#x3be;" horiz-adv-x="886" 
d="M80 434q0 143 91 252t228 145v11q-112 36 -169.5 111t-57.5 177q0 66 27 127t78.5 110.5t135 79.5t187.5 30q153 0 250 -56l-39 -125q-80 47 -201 47q-122 0 -190 -65t-68 -158q0 -105 81 -164.5t208 -64.5q14 0 47 -1t51 -1v-129h-55q-138 -1 -234 -43.5t-140 -110.5
t-44 -155q0 -47 13.5 -87.5t34.5 -71t55.5 -57t67.5 -45t80.5 -34.5t83.5 -25.5t88.5 -19t83.5 -13.5t79 -10q9 0 14.5 -6.5t5.5 -15.5q0 -78 -39 -191t-83 -168l-117 35q20 35 41.5 110.5t23.5 114.5q-67 10 -120.5 20t-120 29t-117.5 42t-102 59t-84 80t-53.5 104.5
t-20.5 132.5z" />
    <glyph glyph-name="omicron" unicode="&#x3bf;" horiz-adv-x="1124" 
d="M78 487q0 121 38.5 221t105 166t156 102t191.5 36q213 0 345.5 -141t132.5 -367q0 -106 -28.5 -195t-76.5 -149.5t-112 -102.5t-134 -61t-143 -19q-204 0 -339.5 140t-135.5 370zM262 494q0 -164 84 -272.5t215 -108.5q129 0 215 109t86 276q0 66 -17 130.5t-51 121.5
t-93.5 92t-135.5 35t-136 -33.5t-95.5 -89t-53.5 -122t-18 -138.5z" />
    <glyph glyph-name="pi" unicode="&#x3c0;" horiz-adv-x="1136" 
d="M53 834l-24 106q74 51 284 51h770l-18 -139h-137v-557q0 -200 26 -295h-172q-32 55 -32 276v576h-324q-6 -211 -47 -473t-92 -379h-170q54 142 93 394t44 458q-124 0 -201 -18z" />
    <glyph glyph-name="rho" unicode="&#x3c1;" horiz-adv-x="1153" 
d="M139 -45v459q0 176 38 278t106 174q139 146 340 146q206 0 330 -139t124 -363q0 -127 -37.5 -230t-101 -168t-144.5 -100t-171 -35q-97 0 -177 38.5t-124 107.5h-5v-160q0 -269 17 -369h-172q-23 88 -23 361zM608 864q-55 0 -105.5 -23.5t-92.5 -69.5t-67.5 -123.5
t-25.5 -176.5v-82q0 -114 80.5 -192t196.5 -78q139 0 220 107.5t81 277.5q0 154 -77 257t-210 103z" />
    <glyph glyph-name="sigma1" unicode="&#x3c2;" horiz-adv-x="854" 
d="M653 -35q-98 15 -175.5 36t-155 60.5t-129 93t-83.5 136.5t-32 188q0 100 36 194.5t101.5 170.5t169 122t227.5 46q142 0 224 -45l-41 -131q-80 36 -183 36q-157 0 -254.5 -110t-97.5 -268q0 -270 279 -351q77 -23 266 -55q18 -3 18 -29q0 -81 -37.5 -190.5t-78.5 -163.5
l-121 37q21 33 42.5 108t24.5 115z" />
    <glyph glyph-name="sigma" unicode="&#x3c3;" horiz-adv-x="1134" 
d="M78 485q0 245 141 386t369 141h299h123q82 0 100 2l-6 -137q-115 0 -260 6v-6q87 -61 135.5 -161t48.5 -214q0 -106 -28 -194.5t-74.5 -148.5t-108 -102t-128.5 -61t-136 -19q-204 0 -339.5 139t-135.5 369zM559 877q-74 0 -132.5 -33.5t-93.5 -89t-53 -122t-18 -138.5
q0 -163 84 -272t213 -109q123 0 207 111t84 278q0 65 -17 129t-51 120t-92 91t-131 35z" />
    <glyph glyph-name="tau" unicode="&#x3c4;" horiz-adv-x="845" 
d="M-10 940q67 51 268 51h571l-22 -139h-305v-563q0 -168 112 -168q33 0 43 2l-8 -127q-29 -19 -98 -19q-119 0 -174 75t-55 233v567h-109q-115 0 -201 -16z" />
    <glyph glyph-name="upsilon" unicode="&#x3c5;" horiz-adv-x="1073" 
d="M137 657q0 267 -22 334h172q28 -31 28 -184v-404q0 -72 19.5 -127.5t53 -86.5t72 -46.5t81.5 -15.5q127 0 194.5 122t67.5 339q0 125 -22.5 240.5t-45.5 162.5h170q28 -53 51 -162.5t23 -224.5q0 -93 -12.5 -177.5t-44.5 -168.5t-81.5 -144.5t-130.5 -98.5t-184 -38
q-173 0 -281 103t-108 299v278z" />
    <glyph glyph-name="phi" unicode="&#x3c6;" horiz-adv-x="1314" 
d="M78 502q0 82 22.5 158t57.5 132t81 103t90.5 77t88.5 48l69 -100q-44 -28 -81.5 -64.5t-73 -87t-56 -118.5t-20.5 -144q0 -155 83 -263t239 -132v600q0 150 70.5 224.5t178.5 74.5q92 0 171 -44t129.5 -114.5t79 -157t28.5 -174.5q0 -123 -41.5 -223.5t-111.5 -165.5
t-156.5 -103t-182.5 -48v-386h-165v386q-96 7 -182.5 40.5t-159 94.5t-115.5 160.5t-43 226.5zM743 739v-630q148 20 234 128.5t86 280.5q0 147 -72.5 254t-161.5 107q-40 0 -63 -35.5t-23 -104.5z" />
    <glyph glyph-name="chi" unicode="&#x3c7;" horiz-adv-x="935" 
d="M176 -436l-153 47l354 708l-340 672h192l252 -534h8q17 38 103 219l149 315h174l-348 -669l361 -713l-168 -45l-295 608l-8 -2q-10 -23 -42 -94.5t-53 -116.5z" />
    <glyph glyph-name="psi" unicode="&#x3c8;" horiz-adv-x="1341" 
d="M137 762q0 164 -16 229h164q26 -37 26 -184v-299q0 -85 15.5 -152t42.5 -111.5t65 -74.5t79.5 -44t90.5 -17v1142h166v-1142q135 6 220 136t85 341q0 140 -24.5 253.5t-49.5 151.5h166q33 -51 56.5 -156t23.5 -235q0 -92 -15.5 -176.5t-51.5 -164.5t-89.5 -140
t-136 -98.5t-184.5 -43.5v-383h-166v383q-80 5 -146.5 22.5t-127.5 55.5t-102.5 95t-66 144.5t-24.5 199.5v268z" />
    <glyph glyph-name="omega" unicode="&#x3c9;" horiz-adv-x="1421" 
d="M440 -23q-67 0 -129.5 30.5t-115.5 91t-85 166t-32 241.5q0 157 50.5 292t121.5 206h168v-5q-73 -79 -118.5 -208t-45.5 -281q0 -99 19.5 -175.5t51 -120t67.5 -65.5t73 -22q69 0 117 65.5t47 157.5l-4 393h170l-4 -391q-2 -95 47.5 -160t122.5 -65q83 0 144.5 105
t61.5 294q0 144 -45.5 273.5t-117.5 199.5v5h170q71 -59 120 -189.5t49 -292.5q0 -134 -31.5 -241t-85 -171.5t-119.5 -98.5t-138 -34q-91 0 -159 47t-99 128h-9q-36 -82 -104 -128.5t-158 -46.5z" />
    <glyph glyph-name="iotadieresis" unicode="&#x3ca;" horiz-adv-x="483" 
d="M150 991h180v-751q0 -66 17.5 -93.5t68.5 -27.5h10l-10 -131q-33 -11 -80 -11q-89 0 -137.5 53.5t-48.5 192.5v768zM432 1141q-42 0 -70 31t-28 73t29.5 72.5t72.5 30.5q41 0 70 -30t29 -73t-28.5 -73.5t-74.5 -30.5zM-43 1245q0 42 30 72.5t72 30.5q41 0 70 -30t29 -73
t-28.5 -73.5t-72.5 -30.5q-43 0 -71.5 31t-28.5 73z" />
    <glyph glyph-name="upsilondieresis" unicode="&#x3cb;" horiz-adv-x="1073" 
d="M137 657q0 267 -22 334h172q28 -31 28 -184v-404q0 -72 19.5 -127.5t53 -86.5t72 -46.5t81.5 -15.5q127 0 194.5 122t67.5 339q0 124 -22 239t-44 164h168q28 -53 51 -162.5t23 -224.5q0 -93 -12.5 -177.5t-44.5 -168.5t-81.5 -144.5t-130.5 -98.5t-184 -38
q-173 0 -281 103t-108 299v278zM614 1245q0 42 29.5 72.5t73.5 30.5q41 0 69.5 -30t28.5 -73t-28 -73.5t-74 -30.5q-42 0 -70.5 31t-28.5 73zM338 1141q-43 0 -71.5 31t-28.5 73t30 72.5t72 30.5q41 0 69.5 -30t28.5 -73t-28 -73.5t-72 -30.5z" />
    <glyph glyph-name="omicrontonos" unicode="&#x3cc;" horiz-adv-x="1124" 
d="M553 -23q-204 0 -339.5 140t-135.5 370q0 121 38.5 221t105 166t156 102t191.5 36q213 0 345.5 -141t132.5 -367q0 -106 -28.5 -195t-76.5 -149.5t-112 -102.5t-134 -61t-143 -19zM565 877q-76 0 -136 -33.5t-95.5 -89t-53.5 -122t-18 -138.5q0 -164 84 -272.5
t215 -108.5q129 0 215 109t86 276q0 66 -17 130.5t-51 121.5t-93.5 92t-135.5 35zM483 1112l109 293h180l-170 -293h-119z" />
    <glyph glyph-name="upsilontonos" unicode="&#x3cd;" horiz-adv-x="1073" 
d="M137 657q0 267 -22 334h172q28 -31 28 -184v-404q0 -72 19.5 -127.5t53 -86.5t72 -46.5t81.5 -15.5q127 0 194.5 122t67.5 339q0 125 -22.5 240.5t-45.5 162.5h170q28 -53 51 -162.5t23 -224.5q0 -93 -12.5 -177.5t-44.5 -168.5t-81.5 -144.5t-130.5 -98.5t-184 -38
q-173 0 -281 103t-108 299v278zM569 1112h-123l111 293h182z" />
    <glyph glyph-name="omegatonos" unicode="&#x3ce;" horiz-adv-x="1421" 
d="M78 506q0 157 50.5 292t121.5 206h168v-5q-73 -79 -118.5 -208t-45.5 -281q0 -99 19.5 -175.5t51 -120t67.5 -65.5t73 -22q69 0 117 65.5t47 157.5l-4 393h170l-4 -391q-2 -95 47.5 -160t122.5 -65q83 0 144.5 105t61.5 294q0 144 -45.5 273.5t-117.5 199.5v5h170
q71 -59 120 -189.5t49 -292.5q0 -134 -31.5 -241t-85 -171.5t-119.5 -98.5t-138 -34q-91 0 -159 47t-99 128h-9q-36 -82 -104 -128.5t-158 -46.5q-67 0 -129.5 30.5t-115.5 91t-85 166t-32 241.5zM748 1112h-119l108 293h183z" />
    <glyph glyph-name="uni0401" unicode="&#x401;" horiz-adv-x="1007" 
d="M932 0h-778v1380h747v-149h-567v-436h534v-148h-534v-497h598v-150zM612 1581q0 42 29.5 72t73.5 30q42 0 70 -29.5t28 -72.5q0 -44 -28 -74t-74 -30q-42 0 -70.5 30.5t-28.5 73.5zM332 1477q-42 0 -70.5 30.5t-28.5 73.5q0 42 29.5 72t71.5 30t70 -29.5t28 -72.5
q0 -44 -27.5 -74t-72.5 -30z" />
    <glyph glyph-name="uni0402" unicode="&#x402;" horiz-adv-x="1361" 
d="M379 1231h-381v149h1061v-149h-500v-393h6q129 84 277 84q90 0 164.5 -32t124.5 -85.5t84 -126t49.5 -151t15.5 -162.5q0 -159 -49.5 -288.5t-140.5 -205.5q-117 -130 -287 -156l-31 140q87 22 151 69.5t100.5 114t53.5 143t17 166.5q0 61 -8.5 118.5t-30.5 114t-55 98
t-86.5 67.5t-120.5 26q-126 0 -234 -80v-692h-180v1231z" />
    <glyph glyph-name="uni0403" unicode="&#x403;" horiz-adv-x="886" 
d="M154 1380h735v-149h-555v-1231h-180v1380zM580 1694h217l-262 -240h-146z" />
    <glyph glyph-name="uni0404" unicode="&#x404;" horiz-adv-x="1179" 
d="M760 -23q-146 0 -271.5 49t-217 139t-143.5 224.5t-52 298.5q0 146 49.5 276t140 227.5t227 154.5t300.5 57q201 0 321 -66l-43 -139q-114 57 -272 57q-227 0 -368.5 -135t-164.5 -344h709v-141h-707q4 -141 68.5 -256t184 -183.5t272.5 -68.5q159 0 288 55l31 -137
q-132 -68 -352 -68z" />
    <glyph glyph-name="uni0405" unicode="&#x405;" horiz-adv-x="1009" 
d="M86 68l47 149q141 -90 318 -90q134 0 211 64.5t77 170.5q0 95 -60 157.5t-200 115.5q-178 67 -271 160.5t-93 232.5q0 163 123.5 269t322.5 106q188 0 303 -68l-49 -145q-104 65 -260 65q-130 0 -195 -62.5t-65 -143.5q0 -93 62.5 -151t211.5 -116q181 -70 266 -163.5
t85 -241.5q0 -81 -30 -152.5t-88 -127t-152 -88t-212 -32.5q-97 0 -195.5 26.5t-156.5 64.5z" />
    <glyph glyph-name="uni0406" unicode="&#x406;" horiz-adv-x="489" 
d="M154 1380h180v-1380h-180v1380z" />
    <glyph glyph-name="uni0407" unicode="&#x407;" horiz-adv-x="489" 
d="M334 0h-180v1380h180v-1380zM336 1581q0 42 29 72t73 30q42 0 70.5 -29.5t28.5 -72.5q0 -44 -28.5 -74t-74.5 -30q-42 0 -70 30.5t-28 73.5zM55 1477q-42 0 -70 30.5t-28 73.5q0 42 29 72t71 30t70.5 -29.5t28.5 -72.5q0 -44 -28 -74t-73 -30z" />
    <glyph glyph-name="uni0408" unicode="&#x408;" horiz-adv-x="757" 
d="M8 10l25 146q71 -27 151 -27q63 0 107.5 16t78 53.5t50 105t16.5 167.5v909h180v-923q0 -134 -31 -229.5t-89 -149t-130.5 -77.5t-166.5 -24q-112 0 -191 33z" />
    <glyph glyph-name="uni0409" unicode="&#x409;" horiz-adv-x="1804" 
d="M14 -16l-26 143q40 7 80.5 28.5t66.5 47.5q39 39 64.5 105t36.5 154.5t14.5 163.5t3.5 175v579h772v-520q72 10 168 10q107 0 200 -25t168 -75t118.5 -134t43.5 -194q0 -101 -33.5 -180.5t-90 -130t-135 -83.5t-162.5 -46.5t-179 -13.5q-138 0 -276 14v1229h-420v-418
q0 -107 -3 -183.5t-14.5 -175t-33 -168t-61 -134.5t-95.5 -103q-40 -28 -97 -46.5t-110 -18.5zM1026 723v-588q43 -8 143 -8q76 0 142 19.5t117 56.5t80.5 97t29.5 136q0 78 -30 136.5t-83 92t-117.5 50t-140.5 16.5q-51 0 -141 -8z" />
    <glyph glyph-name="uni040A" unicode="&#x40a;" horiz-adv-x="1837" 
d="M154 1380h180v-551h547v551h178v-538q72 10 190 10q103 0 192.5 -24.5t161.5 -73t113 -129.5t41 -187q0 -100 -33.5 -179t-89 -129t-134 -83t-161.5 -46t-178 -13q-162 0 -280 16v674h-547v-678h-180v1380zM1059 705v-568q54 -10 145 -10q75 0 140 18t116.5 54t81 96
t29.5 137q0 59 -19.5 107t-52.5 80t-79.5 53.5t-98 31t-109.5 9.5q-75 0 -153 -8z" />
    <glyph glyph-name="uni040B" unicode="&#x40b;" horiz-adv-x="1382" 
d="M-2 1231v149h1038v-149h-481v-395h4q156 94 313 94q181 0 272 -115.5t91 -302.5v-512h-178v489q0 152 -66 226q-67 67 -176 67q-64 0 -136.5 -25t-123.5 -63v-694h-180v1231h-377z" />
    <glyph glyph-name="uni040C" unicode="&#x40c;" horiz-adv-x="1110" 
d="M156 1380h178v-612h55l473 612h213l-522 -632q83 -11 146 -41.5t108 -80.5t74.5 -104t58.5 -131q14 -36 46.5 -126.5t55.5 -150t50 -114.5h-191q-18 33 -37 78t-30.5 77t-31.5 90t-28 81q-27 75 -55.5 126t-72.5 95t-107 65t-148 21h-57v-633h-178v1380zM463 1444
l190 239h217l-262 -239h-145z" />
    <glyph glyph-name="uni040E" unicode="&#x40e;" horiz-adv-x="1067" 
d="M4 1380h203l274 -592q61 -143 99 -241h6q9 24 84 248l217 585h188l-291 -712q-113 -273 -165 -372q-48 -92 -93 -151q-132 -170 -311 -170q-63 0 -100 13l16 145q24 -6 68 -6q162 0 270 235q17 37 -6 84zM530 1452q-122 0 -186 58t-72 163h138q7 -58 33.5 -92.5
t91.5 -34.5q64 0 90.5 33.5t33.5 93.5h138q-8 -106 -74 -163.5t-193 -57.5z" />
    <glyph glyph-name="uni040F" unicode="&#x40f;" horiz-adv-x="1300" 
d="M563 0h-409v1380h180v-1230h635v1230h180v-1380h-408l-14 -358h-149z" />
    <glyph glyph-name="uni0410" unicode="&#x410;" horiz-adv-x="1253" 
d="M51 0l471 1380h213l471 -1380h-190l-148 434h-489l-143 -434h-185zM551 973l-135 -400h418l-138 398q-29 85 -71 252h-4q-43 -171 -70 -250z" />
    <glyph glyph-name="uni0411" unicode="&#x411;" horiz-adv-x="1118" 
d="M156 4v1376h774v-149h-596v-371q72 10 170 10q83 0 158.5 -15t144.5 -48t119.5 -82t80 -121.5t29.5 -161.5q0 -101 -34 -180.5t-90.5 -130t-135.5 -83.5t-163 -46.5t-179 -13.5q-160 0 -278 16zM334 723v-586q51 -10 149 -10q156 0 261.5 80t105.5 229q0 78 -31.5 136.5
t-86 92t-119 50t-138.5 16.5q-51 0 -141 -8z" />
    <glyph glyph-name="uni0412" unicode="&#x412;" horiz-adv-x="1110" 
d="M156 1360q134 31 325 31q256 0 377 -101q117 -86 117 -243q0 -101 -63.5 -183.5t-170.5 -120.5v-6q52 -12 100 -38.5t91 -67.5t68.5 -103t25.5 -135q0 -81 -24.5 -146t-69.5 -108t-100.5 -73.5t-125 -47t-135.5 -23.5t-139 -7q-158 0 -276 16v1356zM334 135q49 -8 149 -8
q73 0 134 14t112 44t80 83.5t29 126.5q0 90 -49.5 151.5t-128 88.5t-179.5 27h-147v-527zM334 1241v-446h162q137 0 217 65.5t80 167.5q0 115 -79.5 170t-221.5 55q-100 0 -158 -12z" />
    <glyph glyph-name="uni0413" unicode="&#x413;" horiz-adv-x="886" 
d="M154 1380h735v-149h-555v-1231h-180v1380z" />
    <glyph glyph-name="uni0414" unicode="&#x414;" horiz-adv-x="1290" 
d="M25 141l102 4q123 227 162 411t39 474v350h772v-1235l121 -4l-13 -473h-139l-12 332h-871l-12 -332h-139zM494 973q0 -249 -39.5 -438.5t-143.5 -387.5h611v1086h-428v-260z" />
    <glyph glyph-name="uni0415" unicode="&#x415;" horiz-adv-x="1007" 
d="M932 0h-778v1380h747v-149h-567v-436h534v-148h-534v-497h598v-150z" />
    <glyph glyph-name="uni0416" unicode="&#x416;" horiz-adv-x="1640" 
d="M205 0h-182q26 57 49 120.5t50 147t40 121.5q29 80 58 136t72 104.5t102 77t138 38.5l-487 635h207l428 -612h55v612h172v-612h56l428 612h206l-489 -635q79 -7 139.5 -35t104 -77t73 -105.5t58.5 -136.5q11 -32 56.5 -174.5t78.5 -216.5h-182q-21 41 -40.5 96t-41.5 128
t-31 100q-26 79 -51.5 129t-65.5 94.5t-98 65t-139 20.5h-62v-633h-172v633h-63q-65 0 -115.5 -15t-85 -39t-64 -66t-48.5 -83.5t-42 -105.5q-5 -14 -45 -141.5t-67 -182.5z" />
    <glyph glyph-name="uni0417" unicode="&#x417;" horiz-adv-x="1007" 
d="M424 -23q-208 0 -361 91l48 139q63 -35 146.5 -59.5t164.5 -24.5q149 0 232 72.5t83 189.5q0 74 -33 128t-89.5 83t-119 42t-133.5 13h-81v135h79q136 0 231 74t95 180q0 104 -68 162t-180 58q-141 0 -288 -91l-48 131q162 105 365 105q183 0 294 -90.5t111 -247.5
q0 -125 -80.5 -217.5t-203.5 -120.5v-4q149 -15 243 -107.5t95 -238.5q0 -83 -28 -151.5t-76 -114.5t-112.5 -77t-136 -45t-149.5 -14z" />
    <glyph glyph-name="uni0418" unicode="&#x418;" horiz-adv-x="1347" 
d="M346 0h-190v1380h168v-581q0 -323 -17 -584l6 -2q87 184 254 457l447 710h178v-1380h-168v588q0 362 16 561l-6 2q-79 -177 -256 -463z" />
    <glyph glyph-name="uni0419" unicode="&#x419;" horiz-adv-x="1347" 
d="M156 0v1380h168v-581q0 -323 -17 -584l6 -2q87 184 254 457l447 710h178v-1380h-168v588q0 362 16 561l-6 2q-79 -177 -256 -463l-432 -688h-190zM412 1669h137q7 -58 33.5 -92.5t91.5 -34.5t91.5 33.5t33.5 93.5h137q-8 -106 -73.5 -163.5t-192.5 -57.5q-122 0 -186 58
t-72 163z" />
    <glyph glyph-name="uni041A" unicode="&#x41a;" horiz-adv-x="1110" 
d="M334 0h-178v1380h178v-612h55l473 612h213l-522 -632q83 -11 146 -41.5t108 -80.5t74.5 -104t58.5 -131q14 -36 46.5 -126.5t55.5 -150t50 -114.5h-191q-18 33 -37 78t-30.5 77t-31.5 90t-28 81q-27 75 -55.5 126t-72.5 95t-107 65t-148 21h-57v-633z" />
    <glyph glyph-name="uni041B" unicode="&#x41b;" horiz-adv-x="1216" 
d="M8 -16l-22 143q39 6 79 27t66 47q51 51 79.5 158.5t35 206t6.5 233.5v581h811v-1380h-180v1231h-455v-418q0 -107 -3 -183.5t-14.5 -175t-33 -168t-61 -134.5t-95.5 -103q-41 -28 -98.5 -46.5t-114.5 -18.5z" />
    <glyph glyph-name="uni041C" unicode="&#x41c;" horiz-adv-x="1646" 
d="M289 0h-170l96 1380h227l236 -667q82 -244 139 -465h4q47 178 148 465l245 667h228l86 -1380h-176l-33 606q-23 444 -23 596h-4q-94 -306 -174 -524l-244 -670h-135l-225 658q-105 314 -158 536h-4q-6 -264 -26 -610z" />
    <glyph glyph-name="uni041D" unicode="&#x41d;" horiz-adv-x="1335" 
d="M154 0v1380h180v-577h667v577h181v-1380h-181v647h-667v-647h-180z" />
    <glyph glyph-name="uni041E" unicode="&#x41e;" horiz-adv-x="1411" 
d="M74 680q0 162 48 298t133 229.5t203 145.5t255 52q187 0 328.5 -89t217.5 -247.5t76 -363.5q0 -173 -50.5 -312.5t-138 -229.5t-203.5 -138t-249 -48q-182 0 -323 88t-219 248t-78 367zM262 684q0 -112 30 -213t85 -178.5t140 -123.5t188 -46q137 0 239 78.5t152.5 207
t50.5 287.5q0 84 -17 164.5t-53 153t-86.5 127.5t-124 87t-159.5 32q-108 0 -194.5 -47.5t-140 -128t-82 -183t-28.5 -217.5z" />
    <glyph glyph-name="uni041F" unicode="&#x41f;" horiz-adv-x="1308" 
d="M334 0h-180v1380h1001v-1380h-180v1231h-641v-1231z" />
    <glyph glyph-name="uni0420" unicode="&#x420;" horiz-adv-x="1089" 
d="M156 1364q166 27 342 27q104 0 191.5 -22t160.5 -67.5t114.5 -126t41.5 -188.5q0 -112 -42 -199.5t-115.5 -140t-167.5 -79.5t-204 -27q-94 0 -143 12v-553h-178v1364zM334 1235v-537q55 -14 147 -14q162 0 254 77t92 216q0 134 -87 203t-238 69q-114 0 -168 -14z" />
    <glyph glyph-name="uni0421" unicode="&#x421;" horiz-adv-x="1187" 
d="M754 -23q-147 0 -270.5 46t-215 133t-143 221t-51.5 301q0 161 53 296t147 229.5t228 147t293 52.5q210 0 327 -62l-45 -145q-114 57 -276 57q-246 0 -392.5 -150.5t-146.5 -418.5q0 -257 140 -406t389 -149q175 0 292 57l35 -143q-52 -27 -149 -46.5t-215 -19.5z" />
    <glyph glyph-name="uni0422" unicode="&#x422;" horiz-adv-x="1017" 
d="M-2 1229v151h1022v-151h-422v-1229h-180v1229h-420z" />
    <glyph glyph-name="uni0423" unicode="&#x423;" horiz-adv-x="1067" 
d="M463 446l-459 934h203l274 -592q61 -143 99 -241h6q9 24 84 248l217 585h188l-291 -712q-113 -273 -165 -372q-48 -92 -93 -151q-132 -170 -311 -170q-63 0 -100 13l16 145q24 -6 68 -6q162 0 270 235q17 37 -6 84z" />
    <glyph glyph-name="uni0424" unicode="&#x424;" horiz-adv-x="1484" 
d="M74 682q0 131 35.5 237.5t93 176t135 118t156.5 71t163 26.5v125h172v-125q90 -4 171.5 -27t157 -72t130.5 -119t88 -173.5t33 -229.5q0 -127 -33 -229.5t-88 -171.5t-131 -117t-158 -71t-174 -29v-127h-172v127q-90 6 -170.5 28.5t-157 69.5t-131 114t-87.5 169.5
t-33 228.5zM827 1184v-983q78 6 146.5 35.5t126.5 86t91.5 150.5t33.5 217q0 103 -22.5 186.5t-60.5 138t-90 92.5t-107.5 55.5t-117.5 21.5zM655 1184q-47 -3 -92 -15.5t-90.5 -37t-83.5 -64.5t-68 -92.5t-46.5 -126t-16.5 -160.5q0 -118 33 -210.5t90 -149t125.5 -88
t148.5 -39.5v983z" />
    <glyph glyph-name="uni0425" unicode="&#x425;" horiz-adv-x="1169" 
d="M51 0l422 698l-405 682h206l183 -323q85 -150 127 -234h6q49 102 125 234l186 323h207l-420 -671l430 -709h-207l-178 305q-89 145 -158 273h-4q-54 -111 -149 -275l-166 -303h-205z" />
    <glyph glyph-name="uni0426" unicode="&#x426;" horiz-adv-x="1335" 
d="M1104 0h-950v1380h180v-1230h633v1230h180v-1235l121 -4l-13 -475h-139z" />
    <glyph glyph-name="uni0427" unicode="&#x427;" horiz-adv-x="1222" 
d="M553 496q-59 0 -112.5 10.5t-109 38.5t-95.5 73t-65.5 119.5t-25.5 171.5v471h179v-442q0 -144 73.5 -220.5t216.5 -76.5q72 0 146 22t129 58v659h178v-1388h-178v590h-4q-150 -86 -332 -86z" />
    <glyph glyph-name="uni0428" unicode="&#x428;" horiz-adv-x="1734" 
d="M1581 0h-1425v1380h176v-1230h448v1230h176v-1230h449v1230h176v-1380z" />
    <glyph glyph-name="uni0429" unicode="&#x429;" horiz-adv-x="1769" 
d="M1538 0h-1382v1380h176v-1230h448v1230h176v-1230h449v1230h176v-1235l121 -4l-12 -475h-140z" />
    <glyph glyph-name="uni042A" unicode="&#x42a;" horiz-adv-x="1292" 
d="M-4 1233v147h532v-516q68 10 166 10q81 0 156 -15.5t141.5 -50t115 -84t77 -122t28.5 -160.5q0 -99 -32.5 -177.5t-87 -129.5t-131 -85t-159.5 -48t-177 -14q-157 0 -275 16v1229h-354zM528 723v-586q49 -10 142 -10q158 0 257 79t99 230q0 77 -29.5 135.5t-80.5 92.5
t-112.5 50.5t-131.5 16.5q-58 0 -144 -8z" />
    <glyph glyph-name="uni042B" unicode="&#x42b;" horiz-adv-x="1527" 
d="M156 1380h178v-518q61 12 166 12q109 0 202.5 -25t168 -76t117 -135.5t42.5 -195.5q0 -100 -33.5 -179t-89.5 -130t-134 -84t-162 -47t-179 -14q-158 0 -276 16v1376zM334 723v-586q46 -10 143 -10q157 0 262 80t105 229q0 77 -31.5 136t-85 92.5t-117 50t-135.5 16.5
q-49 0 -141 -8zM1364 0h-180v1380h180v-1380z" />
    <glyph glyph-name="uni042C" unicode="&#x42c;" horiz-adv-x="1116" 
d="M156 4v1376h178v-516q68 10 170 10q109 0 203 -25t168.5 -75t117.5 -134.5t43 -195.5q0 -101 -33.5 -180.5t-89.5 -130.5t-135 -84.5t-163.5 -47t-180.5 -13.5q-160 0 -278 16zM334 137q51 -10 147 -10q103 0 184.5 31.5t133 102.5t51.5 173q0 78 -30 136.5t-82.5 93
t-117 51t-141.5 16.5q-55 0 -145 -8v-586z" />
    <glyph glyph-name="uni042D" unicode="&#x42d;" horiz-adv-x="1163" 
d="M422 -23q-201 0 -361 70l39 143q136 -63 299 -63q221 0 355 143t143 365h-643v143h641q-18 210 -141.5 343.5t-329.5 133.5q-138 0 -297 -67l-43 135q174 80 350 80q158 0 283.5 -55t205.5 -152t122 -226t42 -280q0 -167 -52 -303t-142.5 -225t-211 -137t-259.5 -48z" />
    <glyph glyph-name="uni042E" unicode="&#x42e;" horiz-adv-x="1775" 
d="M334 0h-178v1380h178v-594h205q28 288 185 453.5t402 165.5q176 0 307.5 -89t200 -247t68.5 -364q0 -175 -46.5 -315t-127.5 -229.5t-188.5 -136.5t-231.5 -47q-251 0 -407 178t-166 480h-201v-635zM711 684q0 -150 45.5 -276t139.5 -206.5t220 -80.5t219 79t139 208
t46 288q0 84 -15 164.5t-47.5 153.5t-79 128t-113.5 87.5t-147 32.5q-99 0 -178.5 -48t-128.5 -130t-74.5 -184t-25.5 -216z" />
    <glyph glyph-name="uni042F" unicode="&#x42f;" horiz-adv-x="1112" 
d="M221 0h-192q29 47 57 125q13 36 39.5 119.5t44 132t50.5 110t73 101.5q49 49 117 71v5q-134 23 -220 113.5t-86 226.5q0 87 30 155.5t79.5 111t119 70.5t141.5 39t153 11q184 0 329 -29v-1362h-178v598h-133q-128 0 -196 -68q-43 -43 -74.5 -111.5t-66.5 -183.5t-42 -135
q-9 -25 -45 -100zM608 1251q-68 0 -124.5 -13.5t-102 -42.5t-71 -80t-25.5 -120q0 -122 95.5 -192t246.5 -70q116 0 151 4v498q-62 16 -170 16z" />
    <glyph glyph-name="uni0430" unicode="&#x430;" horiz-adv-x="987" 
d="M375 -23q-96 0 -166.5 42t-103.5 105.5t-33 137.5q0 180 154 275.5t442 93.5v20q0 29 -3.5 55t-17.5 59.5t-37.5 57.5t-66.5 40.5t-101 15.5q-150 0 -260 -74l-41 121q63 39 149.5 62.5t178.5 23.5q88 0 155.5 -23.5t108.5 -61.5t67 -92t36 -109t10 -118v-370
q0 -143 14 -238h-162l-14 125h-6q-45 -64 -124 -106t-179 -42zM672 506h-29q-391 0 -391 -223q0 -85 47.5 -128.5t120.5 -43.5q101 0 176.5 62.5t75.5 160.5v172z" />
    <glyph glyph-name="uni0431" unicode="&#x431;" horiz-adv-x="1081" 
d="M545 -25q-101 0 -181.5 38t-132.5 101t-86 150.5t-48.5 180.5t-14.5 196q0 350 154 549q67 100 169 152.5t257 80.5q172 29 245 54l-8 -150q-63 -23 -207 -45q-252 -39 -354 -186q-44 -63 -72.5 -153t-36.5 -175h7q48 106 142.5 164.5t203.5 58.5q188 0 305 -129
t117 -360q0 -245 -121 -386t-338 -141zM545 858q-92 0 -156 -52.5t-91.5 -128.5t-27.5 -165q0 -65 16.5 -132.5t48.5 -129t88 -100.5t126 -39q72 0 126.5 32.5t85 88t45.5 120t15 137.5q0 65 -14 126t-43.5 117.5t-86 91t-132.5 34.5z" />
    <glyph glyph-name="uni0432" unicode="&#x432;" horiz-adv-x="1024" 
d="M143 979q132 22 316 22q59 0 111.5 -4.5t116 -20t108.5 -41t75.5 -72t30.5 -109.5q0 -88 -58.5 -147t-148.5 -79v-4q114 -16 183 -78t69 -165q0 -62 -24.5 -111.5t-68.5 -80.5t-94.5 -52t-113.5 -31t-114 -14t-107 -4q-122 0 -281 12v979zM315 117q77 -6 144 -6
q53 0 100.5 7t96 24t77.5 53.5t29 87.5q0 52 -24.5 87.5t-70.5 53.5t-99 25.5t-122 7.5h-131v-340zM317 868v-295h136q53 0 99 8.5t85.5 26t62.5 49t23 74.5q0 146 -266 146q-48 0 -140 -9z" />
    <glyph glyph-name="uni0433" unicode="&#x433;" horiz-adv-x="788" 
d="M145 991h609v-143h-430v-848h-179v991z" />
    <glyph glyph-name="uni0434" unicode="&#x434;" horiz-adv-x="1085" 
d="M16 131l84 4q156 232 156 598v258h662v-856l102 -2l-10 -446h-142l-8 313h-686l-10 -313h-139zM414 692q0 -322 -129 -555h456v717h-327v-162z" />
    <glyph glyph-name="uni0435" unicode="&#x435;" horiz-adv-x="1026" 
d="M78 479q0 150 55 270.5t162 191.5t248 71q93 0 167 -31.5t118 -79.5t73 -112t40 -123.5t11 -118.5q0 -54 -6 -84h-696q3 -173 98 -258.5t242 -85.5q158 0 274 51l33 -129q-139 -64 -332 -64q-226 0 -356.5 137.5t-130.5 364.5zM528 883q-66 0 -118.5 -27.5t-84 -72
t-49.5 -93t-24 -98.5h526q1 37 -5.5 74t-23.5 77t-44 70.5t-73 50t-104 19.5z" />
    <glyph glyph-name="uni0436" unicode="&#x436;" horiz-adv-x="1366" 
d="M188 0h-176q19 36 36.5 78t43 111.5t31.5 86.5q47 124 117 188.5t180 76.5l-391 450h204l330 -432h35v432h172v-432h35l328 432h206l-391 -450q110 -12 181 -76t116 -186q12 -31 33.5 -92.5t39.5 -106.5t36 -80h-180q-36 65 -91 227q-44 116 -112 163.5t-170 47.5h-31
v-438h-172v438h-31q-109 0 -175 -47.5t-111 -165.5q-70 -183 -93 -225z" />
    <glyph glyph-name="uni0437" unicode="&#x437;" horiz-adv-x="882" 
d="M379 -20q-180 0 -322 79l47 123q121 -69 263 -69q111 0 177 47.5t66 122.5q0 170 -288 170h-89l-2 122h86q113 0 183.5 46t70.5 116q0 66 -53.5 106t-138.5 40q-123 0 -240 -72l-45 111q148 90 330 90q48 0 93.5 -8.5t90 -28t78 -48.5t54 -74t20.5 -101q0 -87 -66 -147
t-157 -79v-4q116 -11 193 -77t77 -171q0 -77 -37 -135.5t-99.5 -92t-136 -50t-155.5 -16.5z" />
    <glyph glyph-name="uni0438" unicode="&#x438;" horiz-adv-x="1134" 
d="M143 0v991h172v-418q0 -185 -12 -397l6 -2q11 21 39.5 78.5t40 79.5t34.5 64t48 83l309 512h211v-991h-172v420q0 164 12 407h-4q-113 -221 -165 -309q-54 -92 -171.5 -287.5t-138.5 -230.5h-209z" />
    <glyph glyph-name="uni0439" unicode="&#x439;" horiz-adv-x="1134" 
d="M352 0h-209v991h172v-418q0 -185 -12 -397l6 -2q11 21 39.5 78.5t40 79.5t34.5 64t48 83l309 512h211v-991h-172v420q0 164 12 407h-4q-113 -221 -165 -309q-54 -92 -171.5 -287.5t-138.5 -230.5zM559 1141q-127 0 -189 70t-69 184h131q5 -69 38.5 -112.5t92.5 -43.5
q63 0 97 42.5t42 113.5h129q-7 -123 -79.5 -188.5t-192.5 -65.5z" />
    <glyph glyph-name="uni043A" unicode="&#x43a;" horiz-adv-x="980" 
d="M328 0h-178v991h178v-430h43l370 430h220l-431 -446q115 -13 194 -88t140 -215q9 -21 28 -70t38 -93t39 -79h-189q-29 46 -92 203q-47 122 -124.5 177.5t-201.5 55.5h-34v-436z" />
    <glyph glyph-name="uni043B" unicode="&#x43b;" horiz-adv-x="1038" 
d="M23 -14l-19 141q60 10 98 41q64 47 83.5 144t19.5 284v395h690v-991h-180v850h-340v-254q0 -229 -32.5 -359.5t-123.5 -189.5q-77 -61 -196 -61z" />
    <glyph glyph-name="uni043C" unicode="&#x43c;" horiz-adv-x="1308" 
d="M252 0h-166l76 991h221l178 -499q50 -136 90 -273h4q15 48 119 340l158 432h223l70 -991h-172l-23 473q-11 195 -16 354h-6q-19 -64 -111 -321l-190 -500h-129l-177 492q-46 128 -100 327h-8q-9 -268 -14 -356z" />
    <glyph glyph-name="uni043D" unicode="&#x43d;" horiz-adv-x="1118" 
d="M324 0h-181v991h181v-399h469v399h180v-991h-180v449h-469v-449z" />
    <glyph glyph-name="uni043E" unicode="&#x43e;" horiz-adv-x="1124" 
d="M78 487q0 121 38.5 221t105 166t156 102t191.5 36q213 0 345.5 -141t132.5 -367q0 -106 -28.5 -195t-76.5 -149.5t-112 -102.5t-134 -61t-143 -19q-204 0 -339.5 140t-135.5 370zM262 494q0 -164 84 -272.5t215 -108.5q129 0 215 109t86 276q0 66 -17 130.5t-51 121.5
t-93.5 92t-135.5 35t-136 -33.5t-95.5 -89t-53.5 -122t-18 -138.5z" />
    <glyph glyph-name="uni043F" unicode="&#x43f;" horiz-adv-x="1107" 
d="M324 0h-181v991h822v-991h-181v850h-460v-850z" />
    <glyph glyph-name="uni0440" unicode="&#x440;" horiz-adv-x="1165" 
d="M150 668q0 112 -9 323h160l10 -170h4q114 191 353 191q183 0 302.5 -140t119.5 -362q0 -129 -37.5 -232.5t-101.5 -168t-144.5 -98.5t-169.5 -34q-99 0 -180 41.5t-125 114.5h-4v-539h-178v1074zM328 403q0 -118 79.5 -201t198.5 -83q140 0 220.5 105t80.5 278
q0 155 -79 260.5t-216 105.5q-113 0 -198.5 -89t-85.5 -204v-172z" />
    <glyph glyph-name="uni0441" unicode="&#x441;" horiz-adv-x="917" 
d="M571 -23q-224 0 -358.5 139t-134.5 367q0 232 146 380.5t386 148.5q75 0 142.5 -16t107.5 -38l-41 -137q-88 47 -209 47q-164 0 -257 -106.5t-93 -267.5q0 -169 96.5 -270t247.5 -101q117 0 221 47l31 -135q-119 -58 -285 -58z" />
    <glyph glyph-name="uni0442" unicode="&#x442;" horiz-adv-x="841" 
d="M330 850h-310v141h799v-141h-309v-850h-180v850z" />
    <glyph glyph-name="uni0443" unicode="&#x443;" horiz-adv-x="964" 
d="M383 78l-365 913h197l215 -585q39 -102 66 -203h4q6 19 17.5 60t23 78t22.5 69l197 581h190l-270 -706q-100 -263 -175 -402t-165 -219q-114 -96 -221 -115l-45 150q84 26 157 88q45 39 105.5 121t60.5 123q0 7 -14 47z" />
    <glyph glyph-name="uni0444" unicode="&#x444;" horiz-adv-x="1312" 
d="M78 487q0 119 38 215t106 159.5t157.5 100.5t195.5 46l-2 442h168l-2 -440q223 -18 360.5 -153t137.5 -359q0 -119 -38.5 -215t-106.5 -159t-157.5 -99t-195.5 -43l2 -388h-168l2 386q-222 14 -359.5 147.5t-137.5 359.5zM575 885q-147 -18 -233 -127t-86 -266
q0 -154 86.5 -261.5t232.5 -126.5v781zM739 102q147 21 233.5 131t86.5 265t-86 261t-234 126v-783z" />
    <glyph glyph-name="uni0445" unicode="&#x445;" horiz-adv-x="948" 
d="M215 0h-199l353 506l-336 485h200l142 -213q39 -55 102 -160h4q43 73 101 162l137 211h196l-337 -479l346 -512h-203l-148 223q-30 44 -106 172h-4q-48 -85 -105 -172z" />
    <glyph glyph-name="uni0446" unicode="&#x446;" horiz-adv-x="1126" 
d="M143 991h181v-850h456v850h178v-856l103 -2l-10 -446h-142l-8 313h-758v991z" />
    <glyph glyph-name="uni0447" unicode="&#x447;" horiz-adv-x="1054" 
d="M459 313q-148 0 -237 80t-89 242v356h180v-334q0 -102 46.5 -156.5t158.5 -54.5q57 0 114.5 19t98.5 49v477h178v-1003h-178v399h-2q-52 -33 -126 -53.5t-144 -20.5z" />
    <glyph glyph-name="uni0448" unicode="&#x448;" horiz-adv-x="1511" 
d="M1366 0h-1223v991h179v-850h344v850h178v-850h344v850h178v-991z" />
    <glyph glyph-name="uni0449" unicode="&#x449;" horiz-adv-x="1533" 
d="M1311 0h-1168v991h179v-850h346v850h178v-850h344v850h176v-856l102 -2l-10 -446h-141z" />
    <glyph glyph-name="uni044A" unicode="&#x44a;" horiz-adv-x="1185" 
d="M322 850h-293v141h473v-334q86 11 170 11q65 0 125 -10t118.5 -35t101 -62t69 -96t26.5 -133q0 -81 -33.5 -143t-85.5 -99t-124 -60.5t-139.5 -31.5t-141.5 -8q-133 0 -266 14v846zM500 127q74 -8 135 -8q60 0 110.5 10.5t94 33.5t68 64.5t24.5 98.5q0 61 -26.5 104.5
t-73 66t-96.5 32.5t-109 10q-57 0 -127 -13v-399z" />
    <glyph glyph-name="uni044B" unicode="&#x44b;" horiz-adv-x="1361" 
d="M143 4v987h181v-336q80 13 159 13q66 0 126.5 -11t116.5 -36t97 -63t65.5 -95.5t24.5 -128.5q0 -96 -46.5 -166t-123.5 -107t-160 -54t-173 -17q-134 0 -267 14zM1217 0h-179v991h179v-991zM455 539q-73 0 -133 -13v-399q49 -8 124 -8q55 0 104 11.5t91 35t67 66t25 98.5
q0 57 -24 99.5t-65 65.5t-88 33.5t-101 10.5z" />
    <glyph glyph-name="uni044C" unicode="&#x44c;" horiz-adv-x="1019" 
d="M143 991h181v-334q79 11 163 11q59 0 112 -6.5t106 -21.5t95.5 -41t76 -62t51.5 -88.5t18 -116.5q0 -81 -35 -143.5t-88.5 -99.5t-127.5 -60t-142.5 -31t-142.5 -8q-134 0 -267 14v987zM322 127q49 -8 135 -8q55 0 105.5 10t98 32.5t76.5 65.5t29 101q0 49 -20 87.5
t-51.5 61.5t-74.5 37.5t-84 19.5t-85 5q-59 0 -129 -13v-399z" />
    <glyph glyph-name="uni044D" unicode="&#x44d;" horiz-adv-x="950" 
d="M348 -20q-166 0 -291 67l37 127q125 -53 246 -53q150 0 243.5 86.5t104.5 234.5h-495v125h497q-13 135 -99 220t-243 85q-123 0 -235 -55l-39 119q133 76 305 76q231 0 362 -143.5t131 -376.5q0 -145 -60.5 -260t-180.5 -183.5t-283 -68.5z" />
    <glyph glyph-name="uni044E" unicode="&#x44e;" horiz-adv-x="1443" 
d="M322 0h-177v991h177v-418h170q23 198 142 318.5t296 120.5q195 0 315.5 -140t120.5 -368q0 -237 -127 -382t-319 -145q-181 0 -299.5 124t-133.5 335h-165v-436zM659 489q0 -100 28.5 -184t90.5 -139t146 -55q86 0 147 59.5t88 145t27 184.5q0 96 -27.5 179.5t-88 140.5
t-144.5 57q-124 0 -195.5 -114t-71.5 -274z" />
    <glyph glyph-name="uni044F" unicode="&#x44f;" horiz-adv-x="1015" 
d="M215 0h-192q34 49 61 113q10 23 29 75t32.5 84t39 72.5t55.5 67.5q49 43 112 57v4q-107 12 -184.5 76t-77.5 172q0 57 21 103t59 76t83 51.5t100 32.5t103 15.5t99 4.5q167 0 317 -21v-983h-178v416h-133q-106 0 -164 -58q-27 -21 -49.5 -57t-34.5 -65.5t-30 -80.5
t-27 -73q-11 -28 -41 -82zM545 883q-50 0 -94 -8t-85 -26t-65.5 -53.5t-24.5 -84.5q0 -59 45.5 -100.5t103 -57.5t116.5 -16h153v335q-83 11 -149 11z" />
    <glyph glyph-name="uni0451" unicode="&#x451;" horiz-adv-x="1026" 
d="M565 -23q-226 0 -356.5 137.5t-130.5 364.5q0 150 55 270.5t162 191.5t248 71q93 0 167 -31.5t118 -79.5t73 -112t40 -123.5t11 -118.5q0 -54 -6 -84h-696q3 -173 98 -258.5t242 -85.5q158 0 274 51l33 -129q-139 -64 -332 -64zM528 883q-66 0 -118.5 -27.5t-84 -72
t-49.5 -93t-24 -98.5h526q1 37 -5.5 74t-23.5 77t-44 70.5t-73 50t-104 19.5zM737 1167q-43 0 -71.5 31.5t-28.5 73.5q0 43 29.5 73.5t72.5 30.5t72 -30t29 -74q0 -43 -29 -74t-74 -31zM358 1167q-42 0 -71 31.5t-29 73.5q0 43 30 73.5t74 30.5q41 0 70 -30t29 -74
q0 -43 -29 -74t-74 -31z" />
    <glyph glyph-name="uni0452" unicode="&#x452;" horiz-adv-x="1140" 
d="M14 1280h168v174h180v-174h463v-129h-463v-291h5q57 63 135.5 102t165.5 39t156.5 -38.5t112.5 -99.5t71.5 -141.5t39.5 -158t11 -155.5q0 -203 -53.5 -353.5t-149.5 -234.5q-120 -101 -256 -113l-33 139q77 16 134.5 56t90.5 91t53.5 121.5t27 136t6.5 144.5
q0 46 -4.5 93t-15 101t-30.5 100t-48.5 84.5t-71.5 60.5t-97 22q-59 0 -117 -32.5t-102 -86.5q-31 -45 -31 -112v-625h-180v1151h-168v129z" />
    <glyph glyph-name="uni0453" unicode="&#x453;" horiz-adv-x="788" 
d="M145 991h609v-143h-430v-848h-179v991zM512 1419h197l-250 -293h-127z" />
    <glyph glyph-name="uni0454" unicode="&#x454;" horiz-adv-x="942" 
d="M584 -23q-156 0 -272 67.5t-175 182.5t-59 260q0 235 151 380t389 145q82 0 153.5 -20.5t113.5 -45.5l-43 -129q-112 55 -226 55q-156 0 -247 -85.5t-107 -219.5h502v-125h-500q10 -147 105.5 -235t242.5 -88q113 0 238 51l35 -129q-48 -24 -127.5 -44t-173.5 -20z" />
    <glyph glyph-name="uni0455" unicode="&#x455;" horiz-adv-x="811" 
d="M82 47l43 135q47 -28 112 -48.5t128 -20.5q93 0 141.5 40.5t48.5 106.5q0 63 -41 103t-141 77q-264 100 -264 281q0 124 94 207.5t248 83.5q147 0 241 -62l-43 -131q-94 60 -203 60q-77 0 -120 -39t-43 -97q0 -59 41.5 -94t144.5 -76q132 -49 196 -119.5t64 -177.5
q0 -134 -99 -216.5t-270 -82.5q-158 0 -278 70z" />
    <glyph glyph-name="uni0456" unicode="&#x456;" horiz-adv-x="479" 
d="M150 0v991h180v-991h-180zM127 1270q0 47 31.5 79.5t81.5 32.5q49 0 79.5 -32t30.5 -80q0 -47 -31 -79t-83 -32q-48 0 -78.5 32t-30.5 79z" />
    <glyph glyph-name="uni0457" unicode="&#x457;" horiz-adv-x="479" 
d="M150 0v991h180v-991h-180zM328 1272q0 43 29.5 73.5t72.5 30.5t71.5 -30t28.5 -74q0 -43 -29 -74t-73 -31q-43 0 -71.5 31.5t-28.5 73.5zM49 1167q-42 0 -71 31.5t-29 73.5q0 43 30 73.5t74 30.5q41 0 70 -30t29 -74q0 -43 -29 -74t-74 -31z" />
    <glyph glyph-name="uni0458" unicode="&#x458;" horiz-adv-x="497" 
d="M-74 -432l-20 141q136 10 196 78q38 43 54 121t16 250v833h180v-903q0 -150 -26.5 -245.5t-92.5 -161.5q-56 -56 -141.5 -84.5t-165.5 -28.5zM258 1159q-48 0 -78 32.5t-30 78.5q0 47 31 79.5t81 32.5t80.5 -32.5t30.5 -79.5t-31 -79t-84 -32z" />
    <glyph glyph-name="uni0459" unicode="&#x459;" horiz-adv-x="1587" 
d="M20 -12l-16 141q58 10 98 39q65 50 89 152t24 278v393h680v-338q79 11 162 11q70 0 132.5 -9.5t123 -34t104 -61.5t70 -95.5t26.5 -133.5q0 -68 -23 -123t-64.5 -91t-92.5 -62t-113 -39t-119 -19t-118 -6q-135 0 -268 14v846h-332v-252q0 -224 -37 -356.5t-131 -192.5
q-70 -61 -195 -61zM893 127q49 -8 133 -8q55 0 105 10t97.5 31.5t76 64.5t28.5 101q0 49 -19 87t-48.5 61t-70 37.5t-79.5 20t-80 5.5q-73 0 -143 -13v-397z" />
    <glyph glyph-name="uni045A" unicode="&#x45a;" horiz-adv-x="1601" 
d="M143 991h181v-368h417v368h181v-346q68 10 168 10q80 0 154 -17t139.5 -53.5t105 -102.5t39.5 -154q0 -80 -33 -142t-84 -98t-122 -59t-138 -31t-141 -8q-117 0 -269 12v481h-417v-483h-181v991zM1055 528q-67 0 -135 -10v-393q105 -6 135 -6q53 0 101 9.5t93 31.5
t72 63.5t27 98.5q0 59 -26 101.5t-70.5 64t-92.5 31t-104 9.5z" />
    <glyph glyph-name="uni045B" unicode="&#x45b;" horiz-adv-x="1169" 
d="M182 1151h-168v129h168v174h180v-174h414v-129h-414v-322h5q52 83 133.5 127.5t179.5 44.5q159 0 252.5 -109t93.5 -312v-580h-180v559q0 131 -55 212t-175 81q-85 0 -148.5 -51.5t-92.5 -126.5q-13 -35 -13 -94v-580h-180v1151z" />
    <glyph glyph-name="uni045C" unicode="&#x45c;" horiz-adv-x="980" 
d="M328 0h-178v991h178v-430h43l370 430h220l-431 -446q115 -13 194 -88t140 -215q9 -21 28 -70t38 -93t39 -79h-189q-29 46 -92 203q-47 122 -124.5 177.5t-201.5 55.5h-34v-436zM395 1126l178 293h199l-250 -293h-127z" />
    <glyph glyph-name="uni045E" unicode="&#x45e;" horiz-adv-x="964" 
d="M383 78l-365 913h197l215 -585q39 -102 66 -203h4q6 19 17.5 60t23 78t22.5 69l197 581h190l-270 -706q-100 -263 -175 -402t-165 -219q-114 -96 -221 -115l-45 150q84 26 157 88q45 39 105.5 121t60.5 123q0 7 -14 47zM217 1395h131q5 -69 38.5 -112.5t92.5 -43.5
q63 0 97 42.5t42 113.5h130q-7 -123 -80 -188.5t-193 -65.5q-127 0 -189 70t-69 184z" />
    <glyph glyph-name="uni045F" unicode="&#x45f;" horiz-adv-x="1101" 
d="M467 0h-324v991h181v-850h454v850h180v-991h-321l-12 -322h-144z" />
    <glyph glyph-name="uni0490" unicode="&#x490;" horiz-adv-x="915" 
d="M156 1380h596l32 252h134l-23 -401h-561v-1231h-178v1380z" />
    <glyph glyph-name="uni0491" unicode="&#x491;" horiz-adv-x="802" 
d="M145 991h469l25 223h129l-12 -366h-432v-848h-179v991z" />
    <glyph glyph-name="uni04D9" unicode="&#x4d9;" horiz-adv-x="671" 
d="M72 442q0 57 6 84h696q-3 174 -96 259t-242 85t-276 -51l-33 127q150 66 334 66q225 0 355 -137.5t130 -364.5q0 -149 -55 -268.5t-162 -190.5t-248 -71q-78 0 -142.5 21.5t-108 58.5t-75.5 83t-49.5 99.5t-25.5 102.5t-8 97zM246 397q-1 -37 5.5 -73.5t23.5 -76.5
t44.5 -69.5t73 -49t103.5 -19.5q66 0 119 27t84.5 71t49 91.5t23.5 98.5h-526z" />
    <glyph glyph-name="Wgrave" unicode="&#x1e80;" horiz-adv-x="1732" 
d="M381 0l-350 1380h188l164 -698q58 -245 102 -477h4q24 140 113 479l184 696h187l168 -700q73 -308 96 -473h4q27 139 111 477l182 696h182l-391 -1380h-186l-174 719q-70 285 -91 450h-4q-32 -193 -106 -450l-197 -719h-186zM821 1456l-262 238h217l191 -238h-146z" />
    <glyph glyph-name="wgrave" unicode="&#x1e81;" horiz-adv-x="1507" 
d="M336 0l-299 991h184l133 -504q60 -246 72 -315h6q35 153 88 313l162 506h152l153 -495q52 -167 88 -324h6q19 121 76 322l141 497h179l-320 -991h-164l-151 473q-57 180 -88 326h-4q-36 -169 -91 -328l-159 -471h-164zM735 1126l-250 293h197l180 -293h-127z" />
    <glyph glyph-name="Wacute" unicode="&#x1e82;" horiz-adv-x="1732" 
d="M381 0l-350 1380h188l164 -698q58 -245 102 -477h4q24 140 113 479l184 696h187l168 -700q73 -308 96 -473h4q27 139 111 477l182 696h182l-391 -1380h-186l-174 719q-70 285 -91 450h-4q-32 -193 -106 -450l-197 -719h-186zM786 1454l191 240h217l-262 -240h-146z" />
    <glyph glyph-name="wacute" unicode="&#x1e83;" horiz-adv-x="1507" 
d="M336 0l-299 991h184l133 -504q60 -246 72 -315h6q35 153 88 313l162 506h152l153 -495q52 -167 88 -324h6q19 121 76 322l141 497h179l-320 -991h-164l-151 473q-57 180 -88 326h-4q-36 -169 -91 -328l-159 -471h-164zM662 1126l180 293h196l-250 -293h-126z" />
    <glyph glyph-name="Wdieresis" unicode="&#x1e84;" horiz-adv-x="1732" 
d="M31 1380h188l164 -698q58 -245 102 -477h4q24 140 113 479l184 696h187l168 -700q73 -308 96 -473h4q27 139 111 477l182 696h182l-391 -1380h-186l-174 719q-70 285 -91 450h-4q-32 -193 -106 -450l-197 -719h-186zM1061 1477q-42 0 -70 30.5t-28 73.5q0 42 29 72t73 30
q42 0 70 -29.5t28 -72.5q0 -44 -28 -74t-74 -30zM584 1581q0 42 29 72t71 30t70 -29.5t28 -72.5q0 -44 -27.5 -74t-72.5 -30q-42 0 -70 30.5t-28 73.5z" />
    <glyph glyph-name="wdieresis" unicode="&#x1e85;" horiz-adv-x="1507" 
d="M336 0l-299 991h184l133 -504q60 -246 72 -315h6q35 153 88 313l162 506h152l153 -495q52 -167 88 -324h6q19 121 76 322l141 497h179l-320 -991h-164l-151 473q-57 180 -88 326h-4q-36 -169 -91 -328l-159 -471h-164zM842 1272q0 43 29.5 73.5t72.5 30.5t71.5 -30
t28.5 -74q0 -43 -29 -74t-73 -31q-43 0 -71.5 31.5t-28.5 73.5zM561 1167q-42 0 -71 31.5t-29 73.5q0 43 30 73.5t74 30.5q41 0 70 -30t29 -74q0 -43 -29 -74t-74 -31z" />
    <glyph glyph-name="uni1EA0" unicode="&#x1ea0;" horiz-adv-x="1253" 
d="M51 0l471 1380h213l471 -1380h-190l-148 434h-489l-143 -434h-185zM416 573h418l-138 398q-29 85 -71 252h-4q-39 -161 -70 -250zM618 -375q-43 0 -72.5 31.5t-29.5 75.5q0 43 31 73.5t74 30.5q42 0 71 -30.5t29 -73.5q0 -44 -29 -75.5t-74 -31.5z" />
    <glyph glyph-name="uni1EA1" unicode="&#x1ea1;" horiz-adv-x="987" 
d="M72 262q0 180 154 275.5t442 93.5v20q0 29 -3.5 55t-17.5 59.5t-37.5 57.5t-66.5 40.5t-101 15.5q-150 0 -260 -74l-41 121q63 39 149.5 62.5t178.5 23.5q88 0 155.5 -23.5t108.5 -61.5t67 -92t36 -109t10 -118v-370q0 -143 14 -238h-162l-14 125h-6q-45 -64 -124 -106
t-179 -42q-96 0 -166.5 42t-103.5 105.5t-33 137.5zM252 283q0 -85 47.5 -128.5t120.5 -43.5q101 0 176.5 62.5t75.5 160.5v172h-29q-391 0 -391 -223zM389 -270q0 44 31 75t74 31t71.5 -31t28.5 -75q0 -43 -29 -74t-73 -31q-43 0 -73 31.5t-30 73.5z" />
    <glyph glyph-name="uni1EA2" unicode="&#x1ea2;" horiz-adv-x="1253" 
d="M236 0h-185l471 1380h213l471 -1380h-190l-148 434h-489zM551 973l-135 -400h418l-138 398q-29 85 -71 252h-4q-43 -171 -70 -250zM451 1683q69 138 202 138q71 0 120.5 -43.5t49.5 -106.5q0 -35 -16 -64.5t-36.5 -47.5t-49 -47.5t-45.5 -59.5l-94 27q13 35 40.5 65
t46.5 53.5t19 51.5q0 30 -18.5 47.5t-48.5 17.5q-52 0 -103 -72z" />
    <glyph glyph-name="uni1EA3" unicode="&#x1ea3;" horiz-adv-x="987" 
d="M72 262q0 180 154 275.5t442 93.5v20q0 29 -3.5 55t-17.5 59.5t-37.5 57.5t-66.5 40.5t-101 15.5q-150 0 -260 -74l-41 121q63 39 149.5 62.5t178.5 23.5q88 0 155.5 -23.5t108.5 -61.5t67 -92t36 -109t10 -118v-370q0 -143 14 -238h-162l-14 125h-6q-45 -64 -124 -106
t-179 -42q-96 0 -166.5 42t-103.5 105.5t-33 137.5zM252 283q0 -85 47.5 -128.5t120.5 -43.5q101 0 176.5 62.5t75.5 160.5v172h-29q-391 0 -391 -223zM373 1298l-70 43q68 136 201 136q75 0 124.5 -43t49.5 -111q0 -32 -11.5 -59t-30 -48t-39 -40t-42 -43.5t-33.5 -49.5
l-96 25q8 30 28.5 57.5t39.5 45t34 42t15 50.5q0 30 -20 48.5t-50 18.5q-51 0 -100 -72z" />
    <glyph glyph-name="uni1EA4" unicode="&#x1ea4;" horiz-adv-x="1253" 
d="M236 0h-185l471 1380h213l473 -1380h-190l-150 434h-489zM551 973l-135 -400h418l-138 398q-29 85 -71 252h-4q-43 -171 -70 -250zM385 1452l188 234h129l195 -234h-143l-113 143h-4l-115 -143h-137zM799 1626l172 215h182l-248 -215h-106z" />
    <glyph glyph-name="uni1EA5" unicode="&#x1ea5;" horiz-adv-x="987" 
d="M72 262q0 180 154 275.5t442 93.5v20q0 29 -3.5 55t-17.5 59.5t-37.5 57.5t-66.5 40.5t-101 15.5q-150 0 -260 -74l-41 121q63 39 149.5 62.5t178.5 23.5q88 0 155.5 -23.5t108.5 -61.5t67 -92t36 -109t10 -118v-370q0 -143 14 -238h-162l-14 125h-6q-45 -64 -124 -106
t-179 -42q-96 0 -166.5 42t-103.5 105.5t-33 137.5zM252 283q0 -85 47.5 -128.5t120.5 -43.5q101 0 176.5 62.5t75.5 160.5v172h-29q-391 0 -391 -223zM240 1126l172 293h133l176 -293h-137l-105 193h-4l-104 -193h-131zM768 1317h-104l141 268h166z" />
    <glyph glyph-name="uni1EA6" unicode="&#x1ea6;" horiz-adv-x="1253" 
d="M236 0h-185l469 1380h215l471 -1380h-190l-148 434h-489zM551 973l-135 -400h418l-138 398q-29 85 -71 252h-7q-31 -139 -67 -250zM510 1452h-137l188 234h129l195 -234h-144l-112 143h-4zM913 1589l-223 215h184l150 -215h-111z" />
    <glyph glyph-name="uni1EA7" unicode="&#x1ea7;" horiz-adv-x="987" 
d="M375 -23q-96 0 -166.5 42t-103.5 105.5t-33 137.5q0 180 154 275.5t442 93.5v20q0 29 -3.5 55t-17.5 59.5t-37.5 57.5t-66.5 40.5t-101 15.5q-150 0 -260 -74l-41 121q63 39 149.5 62.5t178.5 23.5q88 0 155.5 -23.5t108.5 -61.5t67 -92t36 -109t10 -118v-370
q0 -147 16 -238h-162l-16 125h-6q-45 -64 -124 -106t-179 -42zM252 283q0 -85 47.5 -128.5t120.5 -43.5q99 0 175.5 63.5t76.5 159.5v172h-29q-391 0 -391 -223zM238 1126l172 293h133l176 -293h-137l-105 193h-4l-104 -193h-131zM557 1585h164l129 -268h-102z" />
    <glyph glyph-name="uni1EA8" unicode="&#x1ea8;" horiz-adv-x="1253" 
d="M238 0h-185l469 1380h213l471 -1380h-190l-148 434h-489zM551 973l-135 -400h415l-135 398q-29 85 -71 252h-4q-39 -161 -70 -250zM791 1731l-66 38q64 132 195 132q69 0 115 -42t46 -102q0 -43 -22.5 -74t-60.5 -67t-58 -72l-86 25q13 34 41 64t47 54t19 52q0 29 -20 47
t-50 18q-52 0 -100 -73zM377 1454l190 234h129l193 -234h-141l-115 141h-4l-113 -141h-139z" />
    <glyph glyph-name="uni1EA9" unicode="&#x1ea9;" horiz-adv-x="987" 
d="M72 262q0 180 154 275.5t442 93.5v20q0 29 -3.5 55t-17.5 59.5t-37.5 57.5t-66.5 40.5t-101 15.5q-150 0 -260 -74l-41 121q63 39 149.5 62.5t178.5 23.5q88 0 155.5 -23.5t108.5 -61.5t67 -92t36 -109t10 -118v-370q0 -147 16 -238h-164l-14 125h-6q-45 -64 -124 -106
t-179 -42q-96 0 -166.5 42t-103.5 105.5t-33 137.5zM672 506h-29q-391 0 -391 -223q0 -85 47.5 -128.5t120.5 -43.5q99 0 175.5 63.5t76.5 159.5v172zM365 1126h-132l173 293h133l176 -293h-137l-105 193h-4zM557 1524q65 131 195 131q68 0 114.5 -42.5t46.5 -103.5
q0 -34 -15 -62.5t-34.5 -45.5t-46 -45.5t-43.5 -57.5l-90 25q13 34 40 63.5t45.5 53t18.5 51.5t-19 46.5t-48 18.5q-50 0 -98 -73z" />
    <glyph glyph-name="uni1EAA" unicode="&#x1eaa;" horiz-adv-x="1253" 
d="M51 0l471 1380h213l471 -1380h-190l-148 434h-489l-143 -434h-185zM551 973l-135 -400h418l-138 398q-29 85 -71 252h-4q-43 -171 -70 -250zM383 1714q-2 88 36.5 141.5t102.5 53.5q21 0 44.5 -7.5t36.5 -13.5t46 -24q6 -3 18.5 -9.5t19 -9.5t16 -7t17.5 -5.5t15 -1.5
q27 0 41 18.5t17 65.5h94q3 -96 -32 -146.5t-107 -50.5q-46 0 -123 43q-62 35 -90 35q-23 0 -36.5 -22.5t-15.5 -59.5h-100zM496 1454h-146l209 234h137l215 -234h-151l-129 141h-4z" />
    <glyph glyph-name="uni1EAB" unicode="&#x1eab;" horiz-adv-x="987" 
d="M72 262q0 180 154 275.5t442 93.5v20q0 29 -3.5 55t-17.5 59.5t-37.5 57.5t-66.5 40.5t-101 15.5q-150 0 -260 -74l-41 121q63 39 149.5 62.5t178.5 23.5q88 0 155.5 -23.5t108.5 -61.5t67 -92t36 -109t10 -118v-370q0 -143 14 -238h-162l-14 125h-6q-45 -64 -124 -106
t-179 -42q-96 0 -166.5 42t-103.5 105.5t-33 137.5zM252 283q0 -85 47.5 -128.5t120.5 -43.5q101 0 176.5 62.5t75.5 160.5v172h-29q-391 0 -391 -223zM248 1391q-2 88 35.5 141t103.5 53q7 0 13.5 -0.5t14.5 -2.5t13 -3t14 -4.5t12.5 -5t14.5 -7t14 -6.5t15.5 -8t15.5 -8
q6 -3 18.5 -9.5t19 -9.5t16 -7t17.5 -5.5t15 -1.5q26 0 39 18t16 66h97q3 -196 -140 -196q-45 0 -125 43q-66 32 -88 32q-46 0 -53 -79h-98zM381 1126h-137l182 240h133l186 -240h-141l-110 150h-5z" />
    <glyph glyph-name="uni1EAC" unicode="&#x1eac;" horiz-adv-x="1253" 
d="M236 0h-185l471 1380h213l471 -1380h-190l-148 434h-489zM416 573h418l-138 398q-29 85 -71 252h-4q-43 -171 -70 -250zM352 1454l209 234h137l215 -234h-151l-129 141h-4l-131 -141h-146zM618 -371q-42 0 -71 31.5t-29 73.5q0 40 30.5 71t72.5 31q41 0 69.5 -31
t28.5 -71q0 -42 -29.5 -73.5t-71.5 -31.5z" />
    <glyph glyph-name="uni1EAD" unicode="&#x1ead;" horiz-adv-x="987" 
d="M375 -23q-96 0 -166.5 42t-103.5 105.5t-33 137.5q0 180 154 275.5t442 93.5v20q0 29 -3.5 55t-17.5 59.5t-37.5 57.5t-66.5 40.5t-101 15.5q-150 0 -260 -74l-41 121q63 39 149.5 62.5t178.5 23.5q88 0 155.5 -23.5t108.5 -61.5t67 -92t36 -109t10 -118v-370
q0 -143 14 -238h-162l-14 125h-6q-45 -64 -124 -106t-179 -42zM672 506h-29q-391 0 -391 -223q0 -85 47.5 -128.5t120.5 -43.5q101 0 176.5 62.5t75.5 160.5v172zM238 1126l190 293h127l197 -293h-138l-120 193h-5l-116 -193h-135zM492 -375q-43 0 -73 31.5t-30 73.5
q0 44 31 75t74 31t71.5 -31t28.5 -75q0 -43 -29 -74t-73 -31z" />
    <glyph glyph-name="uni1EAE" unicode="&#x1eae;" horiz-adv-x="1253" 
d="M238 0h-185l469 1380h213l473 -1380h-192l-148 434h-487zM551 973l-135 -400h418l-138 398q-29 85 -71 252h-4q-41 -164 -70 -250zM379 1642h98q12 -43 50.5 -71.5t107.5 -28.5q131 0 160 100h96q-11 -89 -78 -149.5t-180 -60.5q-114 0 -178.5 59t-75.5 151zM672 1620
h-113l154 215h186z" />
    <glyph glyph-name="uni1EAF" unicode="&#x1eaf;" horiz-adv-x="987" 
d="M375 -23q-96 0 -166.5 42t-103.5 105.5t-33 137.5q0 180 154 275.5t442 93.5v20q0 29 -3.5 55t-17.5 59.5t-37.5 57.5t-66.5 40.5t-101 15.5q-150 0 -260 -74l-41 121q63 39 149.5 62.5t178.5 23.5q88 0 155.5 -23.5t108.5 -61.5t67 -92t36 -109t10 -118v-370
q0 -143 14 -238h-162l-14 125h-6q-45 -64 -124 -106t-179 -42zM672 506h-29q-391 0 -391 -223q0 -85 47.5 -128.5t120.5 -43.5q101 0 176.5 62.5t75.5 160.5v172zM485 1092q-65 0 -116.5 21.5t-82.5 58t-47.5 81t-17.5 93.5h103q9 -62 52 -102t109 -40q74 0 116.5 42
t47.5 100h103q-1 -115 -75 -184.5t-192 -69.5zM410 1315l163 270h172l-227 -270h-108z" />
    <glyph glyph-name="uni1EB0" unicode="&#x1eb0;" horiz-adv-x="1253" 
d="M236 0h-185l469 1380h215l471 -1380h-190l-148 434h-489zM416 573h415l-137 398q-27 83 -69 252h-7q-29 -129 -67 -250zM633 1432q-114 0 -177.5 58.5t-74.5 151.5h98q10 -42 48.5 -71t107.5 -29q133 0 162 100h94q-10 -89 -76.5 -149.5t-181.5 -60.5zM379 1835h188
l154 -215h-113z" />
    <glyph glyph-name="uni1EB1" unicode="&#x1eb1;" horiz-adv-x="987" 
d="M375 -23q-96 0 -166.5 42t-103.5 105.5t-33 137.5q0 180 154 275.5t442 93.5v20q0 29 -3.5 55t-17.5 59.5t-37.5 57.5t-66.5 40.5t-101 15.5q-148 0 -258 -74l-41 121q138 86 326 86q88 0 155.5 -23.5t108.5 -61.5t67 -92t36 -109t10 -118v-370q0 -143 14 -238h-162
l-16 125h-4q-45 -64 -124 -106t-179 -42zM252 283q0 -85 47.5 -128.5t120.5 -43.5q99 0 175.5 63.5t76.5 159.5v172h-29q-391 0 -391 -223zM485 1090q-127 0 -194.5 75t-69.5 181h103q9 -62 52 -102t109 -40q73 0 116 42t48 100h101q-1 -115 -74.5 -185.5t-190.5 -70.5z
M457 1313l-228 270h174l164 -270h-110z" />
    <glyph glyph-name="uni1EB2" unicode="&#x1eb2;" horiz-adv-x="1253" 
d="M236 0h-185l471 1380h213l471 -1380h-190l-148 434h-489zM416 573h415l-135 398q-29 85 -71 252h-4q-43 -171 -70 -250zM635 1432q-114 0 -178.5 59t-75.5 151h98q29 -100 158 -100q133 0 158 100h96q-10 -88 -76.5 -149t-179.5 -61zM449 1819q64 131 194 131
q68 0 115 -42.5t47 -101.5q0 -35 -15 -63.5t-34.5 -46t-47 -46t-44.5 -57.5l-89 25q13 34 40.5 64t46 53.5t18.5 50.5q0 29 -19 47t-49 18q-50 0 -98 -73z" />
    <glyph glyph-name="uni1EB3" unicode="&#x1eb3;" horiz-adv-x="987" 
d="M72 262q0 180 154 275.5t442 93.5v20q0 29 -3.5 55t-17.5 59.5t-37.5 57.5t-66.5 40.5t-101 15.5q-151 0 -258 -74l-41 121q138 86 326 86q88 0 155.5 -23.5t108.5 -61.5t67 -92t36 -109t10 -118v-370q0 -147 16 -238h-164l-14 125h-6q-45 -64 -124 -106t-179 -42
q-96 0 -166.5 42t-103.5 105.5t-33 137.5zM252 283q0 -85 47.5 -128.5t120.5 -43.5q99 0 175.5 63.5t76.5 159.5v172h-29q-391 0 -391 -223zM217 1346h102q9 -62 52.5 -102t109.5 -40q73 0 116 42t48 100h103q-3 -115 -76.5 -184.5t-190.5 -69.5q-127 0 -194.5 74t-69.5 180
zM291 1524q65 131 194 131q70 0 118 -43t48 -103q0 -35 -15 -63t-35 -45t-48 -45.5t-45 -57.5l-90 23q13 35 40 65t45.5 53.5t18.5 51.5t-19 46.5t-48 18.5q-51 0 -99 -73z" />
    <glyph glyph-name="uni1EB4" unicode="&#x1eb4;" horiz-adv-x="1253" 
d="M51 0l469 1380h215l471 -1380h-190l-148 434h-489l-143 -434h-185zM551 973l-135 -400h415l-135 398q-29 85 -71 252h-4q-33 -133 -70 -250zM375 1712q3 78 39 127t100 49q46 0 127 -43q8 -4 23 -12t23.5 -12t19.5 -7.5t20 -3.5q26 0 40 18.5t17 65.5h97
q3 -196 -140 -196q-48 0 -125 43q-62 35 -90 35q-41 0 -49 -64h-102zM621 1432q-114 0 -177.5 58.5t-74.5 151.5h96q12 -43 50.5 -71.5t107.5 -28.5q132 0 161 100h97q-11 -89 -78 -149.5t-182 -60.5z" />
    <glyph glyph-name="uni1EB5" unicode="&#x1eb5;" horiz-adv-x="987" 
d="M72 262q0 180 154 275.5t442 93.5v20q0 29 -3.5 55t-17.5 59.5t-37.5 57.5t-66.5 40.5t-101 15.5q-150 0 -260 -74l-41 121q63 39 149.5 62.5t178.5 23.5q88 0 155.5 -23.5t108.5 -61.5t67 -92t36 -109t10 -118v-370q0 -143 14 -238h-162l-14 125h-6q-45 -64 -124 -106
t-179 -42q-96 0 -166.5 42t-103.5 105.5t-33 137.5zM672 506h-29q-391 0 -391 -223q0 -85 47.5 -128.5t120.5 -43.5q101 0 176.5 62.5t75.5 160.5v172zM492 1092q-127 0 -192 74t-67 180h101q9 -63 51.5 -104.5t106.5 -41.5q71 0 112.5 43.5t46.5 102.5h103
q-3 -116 -74 -185t-188 -69zM344 1427h-100q3 78 39 127.5t98 49.5q46 0 127 -43l19 -9.5l19 -9.5t16 -7t18 -5.5t16 -1.5q25 0 38.5 17.5t16.5 64.5h97q3 -197 -140 -197q-45 0 -125 43q-62 35 -88 35q-43 0 -51 -64z" />
    <glyph glyph-name="uni1EB6" unicode="&#x1eb6;" horiz-adv-x="1253" 
d="M236 0h-185l471 1380h213l471 -1380h-190l-148 434h-489zM551 973l-135 -400h418l-138 398q-29 85 -71 252h-4q-43 -171 -70 -250zM623 1487q-123 0 -185 59.5t-65 157.5h106q9 -42 44.5 -71t103.5 -29q128 0 147 100h105q-3 -97 -66.5 -157t-189.5 -60zM522 -266
q0 40 30.5 71t72.5 31q41 0 69.5 -31t28.5 -71q0 -42 -29 -73.5t-71 -31.5t-71.5 31.5t-29.5 73.5z" />
    <glyph glyph-name="uni1EB7" unicode="&#x1eb7;" horiz-adv-x="987" 
d="M375 -23q-96 0 -166.5 42t-103.5 105.5t-33 137.5q0 180 154 275.5t442 93.5v20q0 29 -3.5 55t-17.5 59.5t-37.5 57.5t-66.5 40.5t-101 15.5q-150 0 -260 -74l-41 121q63 39 149.5 62.5t178.5 23.5q88 0 155.5 -23.5t108.5 -61.5t67 -92t36 -109t10 -118v-370
q0 -143 14 -238h-162l-14 125h-6q-45 -64 -124 -106t-179 -42zM672 506h-29q-391 0 -391 -223q0 -85 47.5 -128.5t120.5 -43.5q101 0 176.5 62.5t75.5 160.5v172zM494 1141q-126 0 -190 74.5t-64 181.5h106q9 -62 48 -102t98 -40q68 0 106 41.5t43 100.5h107
q0 -116 -69.5 -186t-184.5 -70zM492 -375q-43 0 -73 31.5t-30 73.5q0 44 31 75t74 31t71.5 -31t28.5 -75q0 -43 -29 -74t-73 -31z" />
    <glyph glyph-name="uni1EB8" unicode="&#x1eb8;" horiz-adv-x="1007" 
d="M154 0v1380h747v-149h-567v-436h534v-148h-534v-497h598v-150h-778zM403 -266q0 40 30.5 71t72.5 31q41 0 69.5 -31t28.5 -71q0 -42 -29 -73.5t-71 -31.5t-71.5 31.5t-29.5 73.5z" />
    <glyph glyph-name="uni1EB9" unicode="&#x1eb9;" horiz-adv-x="1026" 
d="M565 -23q-226 0 -356.5 137.5t-130.5 364.5q0 150 55 270.5t162 191.5t248 71q93 0 167 -31.5t118 -79.5t73 -112t40 -123.5t11 -118.5q0 -54 -6 -84h-696q3 -173 98 -258.5t242 -85.5q158 0 274 51l33 -129q-139 -64 -332 -64zM252 592h526q1 37 -5.5 74t-23.5 77
t-44 70.5t-73 50t-104 19.5q-66 0 -118.5 -27.5t-84 -72t-49.5 -93t-24 -98.5zM510 -375q-44 0 -73 31t-29 74t30.5 73.5t73.5 30.5t71.5 -30t28.5 -74t-28.5 -74.5t-73.5 -30.5z" />
    <glyph glyph-name="uni1EBA" unicode="&#x1eba;" horiz-adv-x="1007" 
d="M932 0h-778v1380h747v-149h-567v-436h534v-148h-534v-497h598v-150zM367 1686q73 135 202 135q71 0 120.5 -42.5t49.5 -105.5q0 -36 -15.5 -65.5t-36 -47.5t-48.5 -48t-45 -60l-96 27q13 36 41 66t47.5 53.5t19.5 52.5t-19 46t-50 17q-54 0 -101 -72z" />
    <glyph glyph-name="uni1EBB" unicode="&#x1ebb;" horiz-adv-x="1026" 
d="M565 -23q-226 0 -356.5 137.5t-130.5 364.5q0 150 55 270.5t162 191.5t248 71q93 0 167 -31.5t118 -79.5t73 -112t40 -123.5t11 -118.5q0 -54 -6 -84h-696q3 -173 98 -258.5t242 -85.5q158 0 274 51l33 -129q-139 -64 -332 -64zM252 592h526q1 37 -5.5 74t-23.5 77
t-44 70.5t-73 50t-104 19.5q-66 0 -118.5 -27.5t-84 -72t-49.5 -93t-24 -98.5zM322 1341q68 136 200 136q75 0 124.5 -43t49.5 -111q0 -39 -18 -73t-41.5 -54.5t-52 -51.5t-43.5 -61l-97 25q8 30 28.5 57.5t39.5 45t34 42t15 50.5q0 30 -19.5 48.5t-49.5 18.5q-54 0 -99 -72
z" />
    <glyph glyph-name="uni1EBC" unicode="&#x1ebc;" horiz-adv-x="1007" 
d="M932 0h-778v1380h747v-149h-567v-436h534v-148h-534v-497h598v-150zM291 1464q-2 95 36 152t103 57q50 0 121 -41q68 -37 98 -37q25 0 38.5 16.5t17.5 63.5h94q3 -198 -137 -198q-49 0 -125 39q-7 3 -21.5 11t-21 11.5t-17.5 8t-19.5 6t-17.5 1.5q-43 0 -53 -90h-96z" />
    <glyph glyph-name="uni1EBD" unicode="&#x1ebd;" horiz-adv-x="1026" 
d="M565 -23q-226 0 -356.5 137.5t-130.5 364.5q0 150 55 270.5t162 191.5t248 71q93 0 167 -31.5t118 -79.5t73 -112t40 -123.5t11 -118.5q0 -54 -6 -84h-696q3 -173 98 -258.5t242 -85.5q158 0 274 51l33 -129q-139 -64 -332 -64zM252 592h526q1 37 -5.5 74t-23.5 77
t-44 70.5t-73 50t-104 19.5q-66 0 -118.5 -27.5t-84 -72t-49.5 -93t-24 -98.5zM260 1161q-3 99 34.5 156t104.5 57q21 0 44.5 -7.5t36.5 -13.5t46 -24q8 -4 23.5 -12t23.5 -12t19.5 -7.5t21.5 -3.5q25 0 39 19t17 67h96q3 -206 -139 -206q-47 0 -127 43q-6 3 -17 9
t-15.5 8.5t-12.5 6.5t-12 5.5t-10 3.5t-11 2.5t-10 0.5q-48 0 -54 -92h-98z" />
    <glyph glyph-name="uni1EBE" unicode="&#x1ebe;" horiz-adv-x="1007" 
d="M154 0v1380h747v-149h-567v-436h536l-2 -148h-534v-497h598v-150h-778zM281 1454l190 234h129l195 -234h-144l-114 143h-5l-112 -143h-139zM801 1628h-105l172 215h183z" />
    <glyph glyph-name="uni1EBF" unicode="&#x1ebf;" horiz-adv-x="1026" 
d="M565 -23q-226 0 -356.5 137.5t-130.5 364.5q0 150 55 270.5t162 191.5t248 71q93 0 167 -31.5t118 -79.5t73 -112t40 -123.5t11 -118.5q0 -54 -6 -84h-696q3 -173 98 -258.5t242 -85.5q158 0 274 51l33 -129q-139 -64 -332 -64zM252 592h526q1 37 -5.5 74t-23.5 77
t-44 70.5t-73 50t-104 19.5q-66 0 -118.5 -27.5t-84 -72t-49.5 -93t-24 -98.5zM438 1126h-131l172 293h133l176 -293h-137l-104 193h-4zM836 1317h-105l141 268h166z" />
    <glyph glyph-name="uni1EC0" unicode="&#x1ec0;" horiz-adv-x="1007" 
d="M154 1380h747v-149h-567v-436h536l-2 -148h-534v-497h598v-150h-778v1380zM412 1454h-138l189 234h129l194 -234h-143l-113 143h-4zM592 1804h184l150 -213h-111z" />
    <glyph glyph-name="uni1EC1" unicode="&#x1ec1;" horiz-adv-x="1026" 
d="M565 -23q-226 0 -356.5 137.5t-130.5 364.5q0 150 55 270.5t162 191.5t248 71q93 0 167 -31.5t118 -79.5t73 -112t40 -123.5t11 -118.5q0 -57 -8 -84h-694q3 -173 98 -258.5t242 -85.5q158 0 274 51l33 -129q-139 -64 -332 -64zM528 883q-66 0 -118.5 -27.5t-84 -72
t-49.5 -93t-24 -98.5h526q1 37 -5.5 74t-23.5 77t-44 70.5t-73 50t-104 19.5zM299 1126l174 293h131l178 -293h-137l-104 193h-4l-105 -193h-133zM811 1317l-190 268h163l129 -268h-102z" />
    <glyph glyph-name="uni1EC2" unicode="&#x1ec2;" horiz-adv-x="1007" 
d="M156 1380h745v-149h-565v-436h534v-148h-534v-497h598v-150h-778v1380zM686 1731l-65 38q64 132 194 132q69 0 115.5 -41.5t46.5 -102.5q0 -34 -15 -62t-34.5 -45.5t-47 -46.5t-44.5 -59l-86 25q13 35 40.5 65t46.5 53.5t19 51.5q0 29 -20 48t-50 19q-51 0 -100 -75z
M412 1454h-140l191 234h129l194 -234h-143l-115 143h-4z" />
    <glyph glyph-name="uni1EC3" unicode="&#x1ec3;" horiz-adv-x="1026" 
d="M78 479q0 150 55 270.5t162 191.5t248 71q93 0 167 -31.5t118 -79.5t73 -112t40 -123.5t11 -118.5q0 -57 -8 -84h-694q3 -173 98 -258.5t242 -85.5q158 0 274 51l33 -129q-139 -64 -332 -64q-226 0 -356.5 137.5t-130.5 364.5zM528 883q-66 0 -118.5 -27.5t-84 -72
t-49.5 -93t-24 -98.5h526q1 37 -5.5 74t-23.5 77t-44 70.5t-73 50t-104 19.5zM289 1126l174 293h131l178 -293h-137l-105 193h-4l-104 -193h-133zM680 1483l-68 41q69 131 197 131q69 0 116.5 -43t47.5 -103q0 -44 -23 -75t-61 -66t-58 -70l-90 25q13 34 40.5 63.5t46 53
t18.5 51.5t-19.5 46.5t-48.5 18.5q-50 0 -98 -73z" />
    <glyph glyph-name="uni1EC4" unicode="&#x1ec4;" horiz-adv-x="1007" 
d="M154 1380h747v-149h-567v-436h534v-148h-534v-497h598v-150h-778v1380zM303 1714q-2 88 36.5 141.5t102.5 53.5q21 0 44.5 -7.5t36.5 -13.5t46 -24q6 -3 18.5 -9.5t19 -9.5t16 -7t17.5 -5.5t15 -1.5q27 0 41 18.5t17 65.5h94q3 -96 -32 -146.5t-107 -50.5q-46 0 -123 43
q-62 35 -90 35q-23 0 -36.5 -22.5t-15.5 -59.5h-100zM416 1454h-146l209 234h137l215 -234h-151l-129 141h-4z" />
    <glyph glyph-name="uni1EC5" unicode="&#x1ec5;" horiz-adv-x="1026" 
d="M78 479q0 150 55 270.5t162 191.5t248 71q93 0 167 -31.5t118 -79.5t73 -112t40 -123.5t11 -118.5q0 -54 -6 -84h-696q3 -173 98 -258.5t242 -85.5q158 0 274 51l33 -129q-139 -64 -332 -64q-226 0 -356.5 137.5t-130.5 364.5zM252 592h526q1 37 -5.5 74t-23.5 77
t-44 70.5t-73 50t-104 19.5q-66 0 -118.5 -27.5t-84 -72t-49.5 -93t-24 -98.5zM287 1391q-2 88 35.5 141t103.5 53q7 0 13.5 -0.5t14.5 -2.5t13 -3t14 -4.5t12.5 -5t14.5 -7t14 -6.5t15.5 -8t15.5 -8q6 -3 18.5 -9.5t19 -9.5t16 -7t17.5 -5.5t15 -1.5q26 0 39 18t16 66h97
q3 -196 -140 -196q-45 0 -125 43q-66 32 -88 32q-46 0 -53 -79h-98zM420 1126h-137l184 240h131l186 -240h-141l-108 150h-5z" />
    <glyph glyph-name="uni1EC6" unicode="&#x1ec6;" horiz-adv-x="1007" 
d="M154 0v1380h747v-149h-567v-436h534v-148h-534v-497h598v-150h-778zM256 1454l209 234h137l215 -234h-151l-129 141h-5l-131 -141h-145zM532 -371q-42 0 -71 31.5t-29 73.5q0 40 30.5 71t72.5 31q41 0 69.5 -31t28.5 -71q0 -42 -29.5 -73.5t-71.5 -31.5z" />
    <glyph glyph-name="uni1EC7" unicode="&#x1ec7;" horiz-adv-x="1026" 
d="M78 479q0 150 55 270.5t162 191.5t248 71q93 0 167 -31.5t118 -79.5t73 -112t40 -123.5t11 -118.5q0 -54 -6 -84h-696q3 -173 98 -258.5t242 -85.5q158 0 274 51l33 -129q-139 -64 -332 -64q-226 0 -356.5 137.5t-130.5 364.5zM252 592h526q1 37 -5.5 74t-23.5 77
t-44 70.5t-73 50t-104 19.5q-66 0 -118.5 -27.5t-84 -72t-49.5 -93t-24 -98.5zM391 1126h-135l193 293h124l197 -293h-137l-119 193h-4zM408 -270q0 43 30.5 74.5t73.5 31.5t71.5 -31t28.5 -75t-28.5 -74.5t-73.5 -30.5q-44 0 -73 31t-29 74z" />
    <glyph glyph-name="uni1EC8" unicode="&#x1ec8;" horiz-adv-x="489" 
d="M154 1380h180v-1380h-180v1380zM68 1683q69 138 202 138q71 0 120.5 -43.5t49.5 -104.5q0 -36 -16 -65.5t-36.5 -48t-49 -48t-45.5 -59.5l-94 27q13 36 40.5 66t46.5 53t19 51q0 31 -18 48t-49 17q-52 0 -103 -72z" />
    <glyph glyph-name="uni1EC9" unicode="&#x1ec9;" horiz-adv-x="479" 
d="M330 0h-180v991h180v-991zM121 1300l-70 43q64 136 201 136q73 0 122.5 -43t49.5 -111q0 -39 -18 -73t-41.5 -54.5t-52.5 -51.5t-44 -61l-96 25q8 30 28.5 57.5t39.5 45t34 42t15 50.5q0 30 -20 48.5t-50 18.5q-53 0 -98 -72z" />
    </font>
</defs>
</svg>
